Mauro Picotto ‎– 2010

Label:
Bakerloo SRL ‎– BAKERCD09
Format:
CD, Mixed
CD, Album
Country:
Released:
Genre:
Style:

Tracklist Hide Credits

1-1 The Sound Of Alchemy (Mixed By Mauro Picotto)
2-1 Arrival (Original Mix)
2-2 Delicious (Original Mix)
2-3 Cold Blood (Original Mix)
2-4 Love Message (Ramon Tapia First Message Mix)
Remix – Ramon Tapia
2-5 Motion (Original Mix)
2-6 Go (Original Mix)
2-7 Zeitwerk (Original Mix)
2-8 2010 (Original Mix)

Barcode and Other Identifiers

  • Barcode: 807297159721

Other Versions (1 of 1) View All

Cat# Artist Title (Format) Label Cat# Country Year
HN778CD Mauro Picotto 2010(CD, Mixed + CD, Album) High Note Records HN778CD Taiwan 2010 Sell This Version

Recommendations

Reviews

Add Review

mrbens

mrbens

October 23, 2015
Cue points to split the mix as it comes on one long 80 min track:

FILE "01 - The Sound Of Alchemy (Mixed By Mauro Picotto).wav" WAVE
TRACK 01 AUDIO
INDEX 01 00:00:00
TRACK 02 AUDIO
INDEX 01 06:44:68
TRACK 03 AUDIO
INDEX 01 11:30:01
TRACK 04 AUDIO
INDEX 01 19:00:01
TRACK 05 AUDIO
INDEX 01 22:37:37
TRACK 06 AUDIO
INDEX 01 29:07:38
TRACK 07 AUDIO
INDEX 01 30:22:44
TRACK 08 AUDIO
INDEX 01 36:07:26
TRACK 09 AUDIO
INDEX 01 40:52:32
TRACK 10 AUDIO
INDEX 01 47:52:36
TRACK 11 AUDIO
INDEX 01 51:52:34
TRACK 12 AUDIO
INDEX 01 57:51:43
TRACK 13 AUDIO
INDEX 01 62:22:00
TRACK 14 AUDIO
INDEX 01 68:22:38
TRACK 15 AUDIO
INDEX 01 72:37:32