Melissa Manchester ‎– Singin'

Genre:
Style:
Year:

Versions (12)

Cat# Artist Title (Format) Label Cat# Country Year
AL 4136 Melissa Manchester Singin'(LP, Album) Arista AL 4136 Canada 1977 Sell This Version
4136 H, 5301, 5301-4136 Melissa Manchester Singin'(Cass, Album) Arista, GRT, Arista 4136 H, 5301, 5301-4136 US 1977 Sell This Version
IES-80923 Melissa Manchester Singin'(LP, Album) Arista IES-80923 Japan 1977 Sell This Version
AL 4136 Melissa Manchester Singin'(LP, Album, All) Arista AL 4136 US 1977 Sell This Version
AB 4136 Melissa Manchester Singin'(LP, Album, Club) Arista AB 4136 US 1977 Sell This Version
AL 4136 Melissa Manchester Singin'(LP, Album, Promo) Arista AL 4136 US 1977 Sell This Version
ABM-65016 Melissa Manchester Singin'(LP, Album, RE) Arista ABM-65016 Canada 1977 Sell This Version
AL 4136 Melissa Manchester Singin'(LP, Album, San) Arista AL 4136 US 1977 Sell This Version
BVCM-37276, 74321 90373 2 Melissa Manchester Singin'...(CD, Album, RE) BMG, Arista BVCM-37276, 74321 90373 2 Japan 2001 Sell This Version
WOU 4136 Melissa Manchester Singin'(CD, Album, RM) Wounded Bird Records WOU 4136 US 2007 Sell This Version
SICP 3153 Melissa Manchester Singin'...(CD, Album, Ltd, RE, RM) Arista SICP 3153 Japan 2011 Sell This Version
SICP 5441 Melissa Manchester Singin'...(CD, Album, Ltd, RE, RM) Arista SICP 5441 Japan 2017 Sell This Version

Recommendations

Reviews

Add Review

ispace

ispace

February 5, 2019
referencing Singin'..., CD, Album, RE, BVCM-37276, 74321 90373 2
foobar2000 1.3.17 / Dynamic Range Meter 1.1.1
log date: 2019-02-05 22:03:43

--------------------------------------------------------------------------------
Analyzed: Melissa Manchester / Singin' [JP 2001 CD]
--------------------------------------------------------------------------------

DR Peak RMS Duration Track
--------------------------------------------------------------------------------
DR8 0.00 dB -10.72 dB 4:05 01-Sad Eyes
DR8 0.00 dB -9.77 dB 3:51 02-I Wanna Be Where You Are
DR9 0.00 dB -11.27 dB 4:02 03-A Love of Your Own
DR8 -0.01 dB -9.64 dB 3:17 04-No One's Ever Seen This Side of Me
DR9 -0.04 dB -11.85 dB 5:12 05-You Make It Easy
DR7 -0.01 dB -8.86 dB 4:03 06-Stand
DR9 0.00 dB -11.88 dB 3:38 07-My Love Is All I Know
DR9 -0.03 dB -11.26 dB 4:17 08-Time
DR9 0.00 dB -11.76 dB 3:51 09-Let Me Serenade You
DR12 -0.07 dB -14.81 dB 4:52 10-The Warmth of the Sun
--------------------------------------------------------------------------------

Number of tracks: 10
Official DR value: DR9

Samplerate: 44100 Hz
Channels: 2
Bits per sample: 16
Bitrate: 830 kbps
Codec: ALAC
================================================================================