Michael McDonald ‎– No Lookin' Back

Label:
Friday Music ‎– FRM 25534
Series:
Format:
CD, Album, Limited Edition, Reissue
Country:
Released:
Genre:
Style:

Tracklist Hide Credits

1 No Lookin' Back
Written-By – Ed Sanford, Kenny Loggins, Michael McDonald
3:55
2 Bad Times
Written-By – Michael McDonald
4:21
3 (I'll Be Your) Angel
Written-By – Chuck Sabatino, Michael McDonald
3:57
4 By Heart
Written-By – Chuck Sabatino, David Pack, Michael McDonald
4:35
5 Any Foolish Thing
Written-By – Chuck Sabatino, Michael McDonald
4:23
6 Our Love
Written-By – David Pack, Michael McDonald
4:32
7 (I Hang) On Your Every Word
Written-By – Amy Holland, Michael McDonald
3:37
8 Lost In The Parade
Written-By – Grady Walker, Michael McDonald
3:48
9 Don't Let Me Down
Written-By – Michael McDonald, Randy Goodrum
4:01

Companies, etc.

Credits

Notes

According to Friday Music website "Limited Anniversary Edition".

Barcode and Other Identifiers

  • Barcode: 8 29421 25534 5

Other Versions (5 of 22) View All

Cat# Artist Title (Format) Label Cat# Country Year
9 25291-1, 1-25291 Michael McDonald No Lookin' Back(LP, Album) Warner Bros. Records, Warner Bros. Records 9 25291-1, 1-25291 US 1985 Sell This Version
9 25534-1 Michael McDonald No Lookin' Back(LP, Album, RE) Warner Bros. Records 9 25534-1 US 1986 Sell This Version
9 25291-4 Michael McDonald No Lookin' Back(Cass, Album, Dol) Warner Bros. Records 9 25291-4 US 1985 Sell This Version
W4-25291 Michael McDonald No Lookin' Back(Cass, Album) Warner Bros. Records W4-25291 US 1985 Sell This Version
7599-25291-2 Michael McDonald No Lookin' Back(CD, Album) Warner Bros. Records 7599-25291-2 Germany 1985 Sell This Version

Reviews

Add Review

ispace

ispace

April 12, 2018
foobar2000 1.3.17 / Dynamic Range Meter 1.1.1
log date: 2018-04-12 21:29:04

--------------------------------------------------------------------------------
Analyzed: Michael McDonald / No Lookin' Back
--------------------------------------------------------------------------------

DR Peak RMS Duration Track
--------------------------------------------------------------------------------
DR11 0.00 dB -13.01 dB 3:54 01-No Lookin' Back
DR13 0.00 dB -14.81 dB 4:23 02-Bad Times
DR13 0.00 dB -15.01 dB 3:59 03-(I'll Be Your) Angel
DR12 0.00 dB -13.77 dB 4:37 04-By Heart
DR12 0.00 dB -14.01 dB 4:05 05-Don't Let Me Down
DR14 -0.01 dB -15.29 dB 4:05 06-Sweet Freedom
DR11 -0.66 dB -15.22 dB 4:21 07-Our Love
DR13 0.00 dB -14.66 dB 3:22 08-(I Hang) On Your Every Word
DR12 0.00 dB -14.63 dB 4:25 09-Any Foolish Thing
DR12 0.00 dB -14.15 dB 3:50 10-Lost In The Parade
--------------------------------------------------------------------------------

Number of tracks: 10
Official DR value: DR12

Samplerate: 44100 Hz
Channels: 2
Bits per sample: 16
Bitrate: 928 kbps
Codec: ALAC
================================================================================