Michael McDonald ‎– Wide Open

Label:
Chonin Records ‎– 538305292, BMG ‎– 538305292
Format:
CD, Album
Country:
Released:
Genre:
Style:

Tracklist Hide Credits

1 Hail Mary
Bass – Craig YoungElectric Guitar – Drew Ramsey*Electric Guitar, Organ [Wurlitzer], Arranged By [Horn] – Michael McDonaldGuest, Vocals – Amy Holland McDonaldOrgan [B3] – Larry GoldingsSaxophone, Soloist – Mark DouthitWritten-By – Michael McDonald
2 Just Strong Enough
Bass – Willie WeeksConductor, Arranged By [String] – Matt McCauley*Electric Guitar – Warren HaynesElectric Guitar, Soloist – Robben FordHorns – The Levee HornsHorns, Trombone, Arranged By [Horn] – Mark MullinsPiano – Michael McDonaldSaxophone, Arranged By [Additional Horn] – Mark DouthitSousaphone – Matt PerrineStrings – Kris Wilkinson Strings*Tenor Saxophone – Ward SmithTrombone – Barry GreenTrumpet – Bobby Campo, Steve Patrick (2)Written-By – Gary Nicholson, Michael McDonald
3 Find It In Your Heart
Bass – Marcus MillerElectric Guitar – Michael LandauElectric Piano [Rhodes] – Michael McDonaldOrgan [B3] – Larry GoldingsSaxophone, Soloist – Tom ScottSynth – Tim AkersTrumpet, Flugelhorn, Arranged By [Horn] – Michael LeonhartWritten-By – John Goodwin, Michael McDonald
4 Half Truth
Bass – Lanice MorrisonElectric Guitar [Additional] – Sol LittlefieldElectric Guitar, Acoustic Guitar, Soloist – Dann HuffElectric Guitar, Slide Guitar, Soloist [Outro] – Michael LandauOrgan [Wurlitzer], Harmonica – Michael McDonaldSynth – Jeff RoachTwelve-String Guitar – Bernie ChiaravalleWritten-By – Dylan McDonald, Grady Walker, Michael McDonald
5 Ain't No Good
Acoustic Guitar – Bernie ChiaravalleBass – Tony LucidoElectric Guitar – David LevitaElectric Guitar, Soloist – Michael LandauElectric Piano [Wurlitzer] – Michael McDonaldOrgan [B3], Synth – David PaichWritten-By – John Goodwin, Michael McDonald
6 Honest Emotion
Acoustic Guitar, Banjo, Mandolin – Ilya Toshinski*Acoustic Guitar, Keyboards – Michael McDonaldSynth [Bass], Synth, Arranged By [String], Instruments [Brushes] – Shannon ForrestWritten-By – Charles Fichtel, John Goodwin, Michael McDonald
7 Blessing In Disguise
Arranged By [Original], Sequenced By [Synth] – John PeppardBass – Tommy SimsElectric Guitar – Michael LandauElectric Piano [Rhodes], Synth [Additonal Synth Pads, Brass Pad], Clavinet [Wah Clav] – Michael McDonaldGuitar [Additional] – David LevitaSoprano Saxophone – Branford MarsalisSynth, Effects [Synth] – Steve PorcaroWritten-By – Bernie Chiaravalle, Beth Nielsen Chapman, John Peppard, Michael McDonald
8 Dark Side
Acoustic Guitar, Piano, Synth, Arranged By [String] – Michael McDonaldBass – Leland SklarElectric Guitar – David LevitaElectric Guitar, Acoustic Guitar – Dann HuffGuitar [Additional] – Ilya Toshinski*Organ [B-3] – Larry GoldingsWritten-By – Michael McDonald
9 If You Wanted To Hurt Me
Alto Saxophone, Tenor Saxophone – Scott MayoArranged By [Horn] – David FrankBass – Marcus MillerElectric Guitar – Michael LandauGuest, Vocals – Drea ReneeOrgan [B-3] – David PaichOrgan [Wurlitzer], Clavinet, Piano – Michael McDonaldTenor Saxophone, Baritone Saxophone – George ShelbyTrombone – Andrew LippmanTrumpet – Harry KimWritten-By – Michael McDonald, Peter Leinheiser
10 Beautiful Child
Acoustic Guitar, Bouzouki – Danny RaderAcoustic Guitar, Organ [Wurlitzer] – Michael McDonaldBass – Craig YoungElectric Guitar – David LevitaElectric Guitar [Fills] – Michael LandauElectric Guitar, Soloist – Sol LittlefieldLoops [Drum] – Shannon ForrestOrgan [B-3] – David PaichSynth – Jeff RoachWritten-By – Bernie Chiaravalle, Chuck Sabatino, Michael McDonald
11 Too Short
Acoustic Guitar, Electric Guitar [Additional] – David LevitaBass – Tommy SimsElectric Guitar – Michael LandauOrgan [B-3] – David PaichSaxophone, Arranged By [Sax] – Mark DouthitWritten-By – Michael McDonald, Russ Bond*
12 Free A Man
Alto Saxophone, Tenor Saxophone – Scott MayoArranged By [Horn] – David FrankBass – Michael RhodesElectric Guitar – Michael LandauElectric Piano [Rhodes] – Mike RojasOrgan [B3] – Larry GoldingsRhythm Guitar [Electric], Guitar [Robot], Soloist – David LevitaSaxophone, Soloist – Tom ScottTenor Saxophone, Baritone Saxophone – George ShelbyTrombone – Andrew LippmanTrumpet – Harry KimWritten-By – Richard Stekol

Companies, etc.

Credits

Notes

Recorded and mixed at Metal Building Studio, Nolensville, TN

℗&© 2017 Chonin Records, LLC, exclusively licensed to BMG Rights Management (USA), LLC.
Made in the USA / 4050538305296

Barcode and Other Identifiers

  • Barcode (Scanned (Sticker)): 190296961816
  • Barcode (Printed (Sticker)): 1 90296 96181 6
  • Barcode (Scanned (Jacket)): 4050538305296
  • Matrix / Runout: S-673531-021 WIDE OPEN
  • Mastering SID Code: IFPI L011

Other Versions (5 of 5) View All

Cat# Artist Title (Format) Label Cat# Country Year
4050538311440 Michael McDonald Wide Open(2xLP, Album) Chonin Records 4050538311440 USA & Canada 2017 Sell This Version
4050538305296 Michael McDonald Wide Open(CD, Album) BMG 4050538305296 Europe 2017 Sell This Version
none Michael McDonald Wide Open(2xLP, TP) Not On Label none US 2017 Sell This Version
538305292, 4050538305296 Michael McDonald Wide Open(CD, Album, Unofficial) BMG (2), Chonin Records (2), BMG (2), Chonin Records (2) 538305292, 4050538305296 Russia 2017 Sell This Version
538311441 Michael McDonald Wide Open(2xLP, Album) BMG 538311441 US 2017 Sell This Version

Recommendations

Reviews

Add Review

ispace

ispace

February 10, 2018
foobar2000 1.3.17 / Dynamic Range Meter 1.1.1
log date: 2018-02-11 17:03:54

--------------------------------------------------------------------------------
Analyzed: Michael McDonald / Wide Open
--------------------------------------------------------------------------------

DR Peak RMS Duration Track
--------------------------------------------------------------------------------
DR9 -0.03 dB -10.82 dB 6:52 01-Hail Mary
DR9 -0.09 dB -11.05 dB 7:58 02-Just Strong Enough
DR10 0.00 dB -11.15 dB 5:47 03-Find It In Your Heart
DR8 0.00 dB -10.08 dB 5:42 04-Half Truth
DR10 -0.05 dB -11.25 dB 4:26 05-Ain't No Good
DR11 -0.04 dB -13.16 dB 5:32 06-Honest Emotion
DR10 0.00 dB -12.39 dB 5:57 07-Blessing In Disguise
DR9 -0.05 dB -11.07 dB 5:53 08-Dark Side
DR10 -0.05 dB -11.12 dB 5:14 09-If You Wanted To Hurt Me
DR8 0.00 dB -10.04 dB 6:09 10-Beautiful Child
DR9 -0.04 dB -10.98 dB 5:22 11-Too Short
DR9 -0.04 dB -10.09 dB 6:07 12-Free A Man
--------------------------------------------------------------------------------

Number of tracks: 12
Official DR value: DR9

Samplerate: 44100 Hz
Channels: 2
Bits per sample: 16
Bitrate: 1032 kbps
Codec: ALAC
================================================================================