Mike Oldfield ‎– The Best Of Mike Oldfield: Elements

Label:
Virgin ‎– 7243 8 39069 2 5, Virgin ‎– VTCD18
Format:
CD, Compilation, Remastered
Country:
Released:
Genre:
Style:

Tracklist Hide Credits

1 Tubular Bells (Opening Theme)
Written-By – Mike Oldfield
4:16
2 Family Man
Vocals [Uncredited] – Maggie ReillyWritten-By – Reilly*, Frye*, Mike Oldfield, Pert*, Fenn*, Cross*
3:45
3 Moonlight Shadow
Vocals [Uncredited] – Maggie ReillyWritten-By – Mike Oldfield
3:35
4 Heaven's Open
Written-By – Mike Oldfield
4:27
5 Five Miles Out
Vocals [Uncredited] – Maggie ReillyWritten-By – Mike Oldfield
4:14
6 To France
Vocals [Uncredited] – Maggie ReillyWritten-By – Mike Oldfield
4:42
7 Foreign Affair
Vocals [Uncredited] – Maggie ReillyWritten-By – Maggie Reilly, Mike Oldfield
3:53
8 In Dulci Jubilo
Written-By – R.L. Pearsall*Written-By [Uncredited] – Johann Sebastian Bach
2:49
9 Shadow On The Wall
Producer – Alan ShacklockVocals [Uncredited] – Roger ChapmanWritten-By – Mike Oldfield
5:07
10 Islands
Vocals [Uncredited] – Bonnie TylerWritten-By – Mike Oldfield
4:17
11 Etude
Arranged By – Mike OldfieldWritten-By – Francisco Tarrega*
3:06
12 Sentinel
Producer – Trevor HornWritten-By – Mike Oldfield
3:56
13 Ommadawn (Excerpt)
Written-By – Mike Oldfield
3:38
14 Incantations - Part Four (Excerpt)
Vocals [Uncredited] – Sally OldfieldWritten-By – Mike Oldfield
4:38
15 Amarok (Excerpt)
Written-By – Mike Oldfield
4:43
16 Portsmouth
Written-By – Mike Oldfield
2:00

Companies, etc.

Credits

Notes

This compilation: ℗ 1993 Virgin Records Ltd © 1993 Virgin Records Ltd
Made in the UK

logo: Virgin
Disc: Made in Holland
Inlays: made in the u.k.
Remastered at Abbey Road Studios, London.

Tracks 1, 3, 10, 13, 14 & 16 published by EMI Virgin Music Ltd.
Track 2 published by EMI Virgin Music Ltd./TBP Music Ltd./Josef Weinberger Ltd.
Track 7 published by EMI Virgin Music Ltd./TBP Music Ltd.
Tracks 4, 5, 6, 9, 11 & 15 published by Oldfield Music Ltd./EMI Virgin Music Ltd.
Track 12 published by Warner Music UK Ltd.

Barcode and Other Identifiers

  • Barcode: 724383906925
  • Label Code: LC 3098
  • Other (Distribution Code On CD (France)): PM520
  • Other (Distribution Code On Inlay (France)): F:PM520
  • Rights Society: BIEM|STEMRA
  • Matrix / Runout (Variant 1): 839069 2
  • Matrix / Runout (Variant 2, 3, 4 & 6): 839069 2 @ 2
  • Matrix / Runout (Variant 5): 839069 2 @ 1
  • Other (Variant 1, Matrix Groove Inscription): 2-1-2-NL
  • Other (Variant 2, Matrix Groove Inscription): 2-2-6-NL
  • Other (Variant 3, Matrix Groove Inscription): 2-1-7-NL
  • Other (Variant 4, Matrix Groove Inscription): 2-1-4-NL
  • Other (Variant 5, Matrix Groove Inscription): 2-1-6-NL
  • Other (Variant 6, Matrix Groove Inscription): 2-1-9-NL

Other Versions (5 of 29) View All

Cat# Artist Title (Format) Label Cat# Country Year
7243 8 39069 4 9, VTMC18 Mike Oldfield The Best Of Mike Oldfield: Elements(Cass, Comp, RM) Virgin, Virgin 7243 8 39069 4 9, VTMC18 UK & Ireland 1993 Sell This Version
7243 8 39069 2 5, UK:VTCD18, VTCD18 Mike Oldfield The Best Of Mike Oldfield: Elements(CD, Comp, Unofficial) Virgin (2), Virgin (2), Virgin (2) 7243 8 39069 2 5, UK:VTCD18, VTCD18 Russia Unknown Sell This Version
7243 8 39069 4 9, VTMC18 Mike Oldfield The Best Of Mike Oldfield: Elements(Cass, Comp, RM, Dol) Virgin, Virgin 7243 8 39069 4 9, VTMC18 Italy 1993 Sell This Version
none Mike Oldfield The Best Of Mike Oldfield: Elements(CD, Comp, Unofficial) Not On Label (Mike Oldfield) none 1996 Sell This Version
EP CD 3005 Mike Oldfield The Best Of Mike Oldfield: Elements(CD, Comp, Unofficial) Virgin (2) EP CD 3005 Europe Unknown Sell This Version

Recommendations

Reviews Show All 2 Reviews

Add Review

Pastoreo

Pastoreo

July 13, 2017
edited about 1 month ago
--------------------------------------------------------------------------------
Analyzed: Mike Oldfield / The Best of Mike Oldfield-Elements 243 8 39069 2 5, Virgin ‎– VTCD18
--------------------------------------------------------------------------------

DR Peak RMS Duration Track
--------------------------------------------------------------------------------
DR15 -3.41 dB -22.92 dB 4:16 01-Tubular Bells (Opening Theme)
DR12 -1.12 dB -16.85 dB 3:45 02-Family Man
DR13 -0.29 dB -16.57 dB 3:35 03-Moonlight Shadow
DR8 -0.29 dB -12.48 dB 4:27 04-Heaven's Open
DR12 -0.29 dB -15.68 dB 4:14 05-Five Miles Out
DR13 -1.33 dB -18.03 dB 4:42 06-To France
DR16 -1.19 dB -18.15 dB 3:53 07-Foreign Affair
DR11 -3.70 dB -17.77 dB 2:49 08-In Dulci Jubilo
DR14 -0.85 dB -17.46 dB 5:07 09-Shadow On The Wall
DR12 -1.28 dB -15.86 dB 4:17 10-Islands
DR14 -0.48 dB -17.52 dB 3:06 11-Etude
DR13 -0.34 dB -18.23 dB 3:56 12-Sentinel
DR12 -1.89 dB -17.91 dB 3:38 13-Ommadawn (Excerpt)
DR11 -0.95 dB -17.01 dB 4:38 14-Incantations (Part Four) (Excerpt)
DR12 -1.54 dB -16.22 dB 4:43 15-Amarok (Excerpt)
DR13 -0.43 dB -16.17 dB 2:00 16-Portsmouth
--------------------------------------------------------------------------------

Number of tracks: 16
Official DR value: DR13

Good DR value
xavier1982

xavier1982

July 15, 2015
Some titles is missing on cd but present on vhs and dvd hope a reissue double cd with tracks missing