Mike Oldfield ‎– The Complete Mike Oldfield

Label:
Virgin ‎– VJD-1001~2
Series:
Format:
2 × CD, Compilation
Country:
Released:
Genre:
Style:

Tracklist Hide Credits

I - The Instrumental Section
1-1 Arrival
Composed By – Benny Anderson, Bjorn Ulvaeus*Producer – David Hentschel, Mike Oldfield
2:47
1-2 William Tell Overture
Composed By – Rossini*Producer – Mike Oldfield
3:55
1-3 Cuckoo Song
Composed By – Mike OldfieldProducer – Mike Oldfield
3:13
1-4 In Dulci Jubilo
Composed By – R. L. Pearsall*Producer – Mike Oldfield
2:50
1-5 Portsmouth
Composed By – Mike OldfieldProducer – Mike Oldfield
2:02
1-6 Jungle Gardenia
Composed By – Mike OldfieldProducer – Mike Oldfield
2:37
1-7 Guilty
Composed By – Mike OldfieldProducer – Mike Oldfield
4:04
1-8 Blue Peter
Composed By – Mike OldfieldProducer – Mike Oldfield
2:07
1-9 Waldberg (The Peak)
Composed By – Mike OldfieldProducer – David Hentschel, Mike Oldfield
3:24
1-10 Wonderful Land
Composed By – Jerry LordanProducer – David Hentschel, Mike Oldfield
3:39
1-11 Etude (Theme From The Killing Fields) (Single Version)
Composed By – Francisco Tarrega*Producer – Mike Oldfield
3:39
II - The Vocal Section
1-12 Moonlight Shadow
Composed By – Mike OldfieldProducer – Mike Oldfield, Simon PhillipsVocals – Maggie Reilly
3:36
1-13 Family Man
Composed By – Reilly*, Frye*, Oldfield*, Pert*, Fenn*, Cross*Producer – Mike OldfieldVocals – Maggie Reilly
3:47
1-14 Mistake
Composed By – Mike OldfieldProducer – David Hentschel, Mike OldfieldVocals – Maggie Reilly
2:55
1-15 Five Miles Out
Composed By – Mike OldfieldProducer – Mike Oldfield, Tom Newman (2)Vocals – Maggie Reilly
4:19
1-16 Crime Of Passion
Composed By – Mike OldfieldProducer – Mike OldfieldVocals – Barry Palmer
3:37
1-17 To France
Composed By – Mike OldfieldProducer – Mike Oldfield, Simon PhillipsVocals – Maggie Reilly
4:33
1-18 Shadow On The Wall (12"-Version)
Composed By – Mike OldfieldProducer – Mike Oldfield, Simon PhillipsVocals – Roger Chapman
5:08
III - The Complex Section
2-1 Excerpt From Ommadawn
Composed By – Mike OldfieldProducer – Mike Oldfield
6:58
2-2 Excerpt From Tubular Bells
Composed By – Mike OldfieldProducer – Mike Oldfield
8:35
2-3 Excerpt From Hergest Ridge
Composed By – Mike OldfieldProducer – Mike Oldfield, Tom Newman (2)
4:20
2-4 Excerpt From Incantations
Composed By – Mike OldfieldProducer – Mike Oldfield
4:41
2-5 Excerpt From The Killing Fields (Evacuation)
Composed By – Mike OldfieldProducer – Mike Oldfield
4:12
IV - The Live Section
2-6 Sheba
Composed By – Mike Oldfield
3:30
2-7 Mirage
Composed By – Mike Oldfield
5:13
2-8 Platinum
Composed By – Mike Oldfield
14:24
2-9 Mount Teide
Composed By – Mike Oldfield
4:33

Credits

Notes

Packaged in a standard (large) 2CD jewel case. All live tracks are previously unreleased.
℗1985 Virgin Records Limited
©1985 Virgin Records Limited
Made In Japan

Barcode and Other Identifiers

  • Barcode: 4988037001909

Other Versions (5 of 56) View All

Cat# Artist Title (Format) Label Cat# Country Year
302 689-503, 302 689 Mike Oldfield The Complete Mike Oldfield(2xLP, Comp) Virgin, Virgin 302 689-503, 302 689 Europe 1985 Sell This Version
VNC 5072/3 Mike Oldfield The Complete Mike Oldfield(2xLP, Comp) Virgin VNC 5072/3 South Africa 1985 Sell This Version
MOC 1 Mike Oldfield The Complete(2xLP, Comp) Virgin MOC 1 UK 1985 Sell This Version
635405 Mike Oldfield The Complete Mike Oldfield(2xLP, Comp) Virgin, Edisom 635405 Portugal 1985 Sell This Version
CMOC 1, 502 678-421 Mike Oldfield The Complete(2xCass, Comp) Virgin, Virgin CMOC 1, 502 678-421 Germany 1985 Sell This Version

Reviews

Add Review

Pastoreo

Pastoreo

July 13, 2017
edited 6 months ago
--------------------------------------------------------------------------------
Analyzed: Mike Oldfield / The Complete Mike Oldfield [Virgin Japan VJD-1001]
--------------------------------------------------------------------------------

DR Peak RMS Duration Track
--------------------------------------------------------------------------------
DR8 -5.52 dB -16.25 dB 2:49 01-Arrival
DR9 -4.77 dB -15.57 dB 3:56 02-William Tell Overture
DR10 -5.08 dB -16.50 dB 3:14 03-Cuckoo Song
DR7 -5.95 dB -14.85 dB 2:51 04-In Dulci Jubilo
DR8 -5.71 dB -15.70 dB 2:02 05-Portsmouth
DR11 -5.10 dB -18.49 dB 2:38 06-Jungle Gardenia
DR10 -4.34 dB -16.27 dB 4:05 07-Guilty
DR9 -4.94 dB -16.70 dB 2:09 08-Blue Peter
DR9 -4.81 dB -17.48 dB 3:25 09-Waldberg (The Peak)
DR9 -4.78 dB -17.81 dB 3:40 10-Wonderful Land
DR10 -5.47 dB -19.19 dB 3:08 11-Etude (Theme From The Killing Fields)
DR10 -4.58 dB -16.92 dB 3:37 12-Moonlight Shadow
DR11 -3.78 dB -17.77 dB 3:48 13-Family Man
DR10 -3.82 dB -15.93 dB 2:56 14-Mistake
DR10 -2.77 dB -17.02 dB 4:19 15-Five Miles Out
DR12 -3.51 dB -17.17 dB 3:39 16-Crime Of Passion
DR11 -3.80 dB -17.40 dB 4:35 17-To France
DR11 -3.78 dB -17.49 dB 5:11 18-Shadow On The Wall
--------------------------------------------------------------------------------

Number of tracks: 18
Official DR value: DR10

--------------------------------------------------------------------------------
Analyzed: Mike Oldfield / The Complete Mike Oldfield [Virgin Japan VJD-1002]
--------------------------------------------------------------------------------

DR Peak RMS Duration Track
--------------------------------------------------------------------------------
DR10 -3.06 dB -16.57 dB 6:58 01-Excerpt From Ommadawn
DR11 -3.27 dB -18.83 dB 8:00 02-Excerpt From Tubular Bells
DR11 -3.83 dB -17.69 dB 4:21 03-Excerpt From Hergest Ridge
DR11 -3.71 dB -17.94 dB 4:42 04-Excerpt From Incantations
DR13 -3.28 dB -19.49 dB 4:12 05-Excerpt From The Killing Fields (Evacuation)
DR11 -1.44 dB -17.39 dB 3:30 06-Sheba
DR12 -1.60 dB -17.31 dB 5:14 07-Mirage
DR12 -1.74 dB -16.69 dB 14:27 08-Platinum
DR12 -2.27 dB -18.85 dB 4:36 09-Mount Teide
--------------------------------------------------------------------------------

Number of tracks: 9
Official DR value: DR11

Not bad DR but there are better