Moebius (2) ‎– Welcome To World (Complete Studio Recordings 1979-82)

Label:
Chickadisc ‎– CHI CD 004
Format:
CD, Compilation, Remastered
Country:
Released:
Genre:
Style:

Tracklist Hide Credits

1 Light My Fire
Written-By – The Doors
3:32
2 Money
Written-By – B. Robbley*
5:31
3 Clone Zone
Written-By – B. Robbley*
4:59
4 Prophecy
Written-By – B. Robbley*
6:36
5 Urth
Written-By – B. Robbley*
6:49
6 Moebius
Written-By – B. Robbley*, D. Lynner*
5:11
7 Mirror Of Infinity
Written-By – B. Robbley*
6:03
8 Song For Lya
Written-By – B. Robbley*, D. Lynner*
3:17
9 Born On A Saturday Night
Written-By – B. Robbley*
4:58
10 Main Contender
Written-By – B. Boydstun*, D. Lynner*
2:28
11 Video Soldier
Written-By – B. Robbley*
4:27
12 Fallin In Love
Written-By – B. Boydstun*, D. Lynner*
3:20
13 Pushin' Too Hard
Written-By – S. Saxon*
3:22
14 Living In Lost Angeles
Written-By – B. Robbley*
2:39
15 Hot Nite
Written-By – B. Boydstun*, D. Lynner*
4:06
16 I Need A Job
Written-By – B. Robbley*
2:26

Companies, etc.

Credits

Notes

Promo sticker: "Synth extravaganza from Los Angeles! Complete studio recordings from project led by Bryce Robbley and Doug Lynner, featuring Steve Roach. Both albums and singles included. New remaster. Booklet with linear notes."
Tracks 1 - 8 taken from album "Moebius" (1979)
Track 9 taken from SP "Born on a Saturday Night / Song for Lya" (1981)
Tracks 10 - 16 taken from album "Video Soldier in a Radio War" (1982)
File under: Electronic / Synth-Pop
Essay in linear notes in English & Polish

Barcode and Other Identifiers

  • Barcode (text): 5 901549 197853

Reviews Show All 2 Reviews

Add Review

ispace

ispace

February 9, 2018
foobar2000 1.3.17 / Dynamic Range Meter 1.1.1
log date: 2018-02-09 20:11:20

--------------------------------------------------------------------------------
Analyzed: Moebius / Welcome To World - Complete Studio Recordings 1979-82
--------------------------------------------------------------------------------

DR Peak RMS Duration Track
--------------------------------------------------------------------------------
DR10 -0.92 dB -12.84 dB 3:34 01-Light My Fire
DR10 -0.92 dB -11.94 dB 5:34 02-Money
DR11 -0.92 dB -13.96 dB 5:01 03-Clone Zone
DR9 -0.92 dB -11.91 dB 6:39 04-Prophecy
DR10 -0.92 dB -12.54 dB 6:51 05-Urth
DR10 -0.92 dB -12.80 dB 5:13 06-Moebius
DR10 -0.92 dB -13.11 dB 6:06 07-Mirror Of Infinity
DR10 -0.91 dB -13.73 dB 3:19 08-Song For Lyn
DR10 -0.92 dB -11.94 dB 5:04 09-Born On A Saturday Night
DR10 -0.92 dB -12.45 dB 2:30 10-Main Contender
DR11 -0.92 dB -13.09 dB 4:29 11-Video Soldier
DR9 -0.92 dB -12.86 dB 3:23 12-Fallin In Love
DR9 -0.92 dB -12.75 dB 3:25 13-Pushin' Too Hard
DR9 -0.92 dB -12.07 dB 2:41 14-Living In Los Angeles
DR10 -0.92 dB -12.96 dB 4:08 15-Hot Nite
DR9 -0.92 dB -11.93 dB 2:27 16-I Need A Job
--------------------------------------------------------------------------------

Number of tracks: 16
Official DR value: DR10

Samplerate: 44100 Hz
Channels: 2
Bits per sample: 16
Bitrate: 948 kbps
Codec: ALAC
================================================================================
giullare

giullare

November 9, 2017

excellent edition with a remastered very very good (from the original masters tapes) and a very nice booklet. absolutely recommend!