Mogwai ‎– Every Country's Sun

Genre:
Style:
Year:

Versions (17)

Cat# Artist Title (Format) Label Cat# Country Year
ROCKACT108CD Mogwai Every Country's Sun(CD, Album) Rock Action Records ROCKACT108CD UK & Europe 2017 Sell This Version
TRR291CD Mogwai Every Country's Sun(11xFile, FLAC, Album) Temporary Residence Limited TRR291CD US 2017
TRR291CD Mogwai Every Country's Sun(11xFile, MP3, Album, 320) Temporary Residence Limited TRR291CD US 2017
ROCKACT108 Mogwai Every Country's Sun(11xFile, MP3, Album, 320) Rock Action Records ROCKACT108 UK & Europe 2017
none Mogwai Every Country's Sun(11xFile, WAV, Album, 24-) Rock Action Records none Europe 2017
ROCKACT108 Mogwai Every Country's Sun(17xFile, MP3, Album, 320) Rock Action Records ROCKACT108 2017
ROCKACT108LP Mogwai Every Country's Sun(2xLP, Album) Rock Action Records ROCKACT108LP UK & Europe 2017 Sell This Version
TRR291LP Mogwai Every Country's Sun(2xLP, Album, 180) Temporary Residence Limited TRR291LP US 2017 Sell This Version
TRR291LP, TRR291LP-C1 Mogwai Every Country's Sun(2xLP, Album, Cle) Temporary Residence Limited, Temporary Residence Limited TRR291LP, TRR291LP-C1 US 2017 Sell This Version
ROCKACT108LPX, ROCKACT108LP Mogwai Every Country's Sun(2xLP, Album, Cle) Rock Action Records, Rock Action Records ROCKACT108LPX, ROCKACT108LP Europe 2017 Sell This Version
ROCKACT108LPXS, ROCKACT108LP Mogwai Every Country's Sun(2xLP, Album, Ltd, Whi) Rock Action Records, Rock Action Records ROCKACT108LPXS, ROCKACT108LP UK 2017 Sell This Version
ROCKACT108 Mogwai Every Country's Sun(2xLP, Album, Whi + 12" + CD, Album + Box, Album, D) Rock Action Records ROCKACT108 UK 2017 Sell This Version
TRR291DLX Mogwai Every Country's Sun(2xLP, Album, Whi + 12" + CD, Album + Box, Album, D) Temporary Residence Limited TRR291DLX US 2017 Sell This Version
TRR291CD Mogwai Every Country's Sun(CD, Album) Temporary Residence Limited TRR291CD US 2017 Sell This Version
URA515 Mogwai Every Country's Sun(CD, Album) Spunk URA515 Australia & New Zealand 2017 Sell This Version
HSE-4224 Mogwai Every Country's Sun(CD, Album) Hostess Entertainment Unlimited HSE-4224 Japan 2017 Sell This Version
none Mogwai Every Country's Sun(CDr, Album, Promo) Rock Action Records none UK & Europe 2017 Sell This Version

Recommendations

Reviews Show All 23 Reviews

Add Review

pauldelmonte64

pauldelmonte64

December 9, 2018
referencing Every Country's Sun, 2xLP, Album, Cle, ROCKACT108LPX, ROCKACT108LP
severe clicks at the beginning of side a. Can't believe it !
abg_gpl

abg_gpl

July 14, 2018
referencing Every Country's Sun, 2xLP, Album, ROCKACT108LP
Really enjoyable album from Mogwai and a very good pressing - no dishing, no warping, no pops or clicks.
aangen

aangen

February 2, 2018
referencing Every Country's Sun, CD, Album, TRR291CD

Nice songs, But..
Sadly, like way too many CDs released in the past few years, this disc has been compressed to the point that it is very hard to enjoy. Subtle as a nuclear explosion. This one is particularly bad. See below:
--------------------------------------------------------------------------------
foobar2000 1.3.17 / Dynamic Range Meter 1.1.1
log date: 2018-02-02 19:24:30
--------------------------------------------------------------------------------
Analyzed: Mogwai / Every Country's Sun
--------------------------------------------------------------------------------
DR Peak RMS Duration Track
--------------------------------------------------------------------------------
DR5 -0.63 dB -8.16 dB 6:17 01-Coolverine
DR5 -0.32 dB -6.75 dB 4:02 02-Party In The Dark
DR4 -0.36 dB -6.38 dB 4:44 03-Brain Sweeties
DR4 -0.78 dB -7.28 dB 6:58 04-Crossing The Road Material
DR5 -0.43 dB -8.61 dB 4:16 05-Aka 47
DR3 -0.40 dB -6.61 dB 4:44 06-20 Size
DR5 -0.40 dB -8.13 dB 4:31 07-1000 Foot Face
DR5 -0.28 dB -10.25 dB 6:24 08-Don't Believe The Fife
DR5 -0.54 dB -7.64 dB 4:03 09-Battered At A Scramble
DR5 -0.27 dB -6.67 dB 4:30 10-Old Poisons
DR3 -0.16 dB -6.85 dB 5:38 11-Every Country's Sun
--------------------------------------------------------------------------------
Number of tracks: 11
Official DR value: DR4
Samplerate: 44100 Hz
Channels: 2
Bits per sample: 16
Bitrate: 808 kbps
Codec: FLAC
--------------------------------------------------------------------------------
132bpm

132bpm

December 17, 2017
edited about 1 year ago
referencing Every Country's Sun, 2xLP, Album, Whi + 12" + CD, Album + Box, Album, D, ROCKACT108
I ordered my copy from the Mogwai webshop and I did not receive a signed print, but I did receive a small tour poster as well as a 7" of "Party in the Dark"/"Eternal Panther." Also, my copy of the LP is not pure white as seen in the posted photos but instead is somewhat "marblized" with black. Everything else appears to match the photos and description above.
hega0007

hega0007

October 9, 2017
referencing Every Country's Sun, 2xLP, Album, Ltd, Whi, ROCKACT108LPXS, ROCKACT108LP
I ordered direct from Monorail and my records weren't in static, just a poly sleeve, and there was no hype sticker. Has someone actually received one with the sticker pictured?
dmoracze

dmoracze

October 3, 2017
referencing Every Country's Sun, 2xLP, Album, Whi + 12" + CD, Album + Box, Album, D, TRR291DLX
I have some wicked run out noise on sides A and B - really loud static sounds. Anyone else have this issue?
kevinluopw

kevinluopw

September 27, 2017
referencing Every Country's Sun, 2xLP, Album, Whi + 12" + CD, Album + Box, Album, D, ROCKACT108
Does anyone know how many the singed print version is limited to?
vortura

vortura

September 26, 2017
referencing Every Country's Sun, 2xLP, Album, Whi + 12" + CD, Album + Box, Album, D, TRR291DLX
Mine also came with a 7-inch of "Party In The Dark" b/w "Eternal Panther" as well as a small poster. Both were included with the shipment though and not in the box itself.
manicdogbert74

manicdogbert74

September 25, 2017
edited about 1 year ago
referencing Every Country's Sun, 2xLP, Album, Cle, TRR291LP, TRR291LP-C1
Anybody else's side 2 of the US clear vinyl variant pressed slightly off center?
copers

copers

September 23, 2017
referencing Every Country's Sun, 2xLP, Album, Whi + 12" + CD, Album + Box, Album, D, ROCKACT108

Bought mine from the Mogwai webshop, my brother brought it from London to Melbourne for me and bummed out as there's no signed screen print. The boxset is beautiful though and the album sounds great.