Pablo Cruise ‎– Worlds Away

Genre:
Style:
Year:

Tracklist

Worlds Away 3:46
Love Will Find A Way 4:12
Family Man 5:02
Runnin' 6:35
Don't Want To Live Without It 4:37
You're Out To Lose 3:40
Always Be Together 4:50
Sailing To Paradise 3:28
I Go To Rio 4:00

Versions (46)

Cat# Artist Title (Format) Label Cat# Country Year
SP-4697 Pablo Cruise Worlds Away(LP, Album, PRC) A&M Records SP-4697 US 1978 Sell This Version
ELD-02.09.642 Pablo Cruise Worlds Away (Mundos Lejanos)(LP, Album) Iempsa, A&M Records ELD-02.09.642 Peru 1978 Sell This Version
8T-4697 Pablo Cruise Worlds Away(8-Trk, Album) A&M Records 8T-4697 US 1978 Sell This Version
CS-4697 Pablo Cruise Worlds Away(Cass, Album, Dol) A&M Records CS-4697 Canada 1978 Sell This Version
AMLH 64697 Pablo Cruise Worlds Away(LP) A&M Records AMLH 64697 UK 1978 Sell This Version
AMS-5012 Pablo Cruise Worlds Away(LP, Album) A&M Records AMS-5012 Venezuela 1978 Sell This Version
SLAM-109 Pablo Cruise Worlds Away(LP, Album) A&M Records SLAM-109 Mexico 1978 Sell This Version
SP-4697 Pablo Cruise Worlds Away(LP, Album) A&M Records SP-4697 US 1978 Sell This Version
SP-4697 Pablo Cruise Worlds Away(LP, Album) A&M Records SP-4697 Canada 1978 Sell This Version
AMLH 64697 Pablo Cruise Worlds Away(LP, Album) A&M Records AMLH 64697 Italy 1978 Sell This Version
AMLH 64697 Pablo Cruise Worlds Away(LP, Album) A&M Records AMLH 64697 UK 1978 Sell This Version
SP-4697 Pablo Cruise Worlds Away(LP, Album) A&M Records SP-4697 US 1978 Sell This Version
SP-4697, SP 4697 Pablo Cruise Worlds Away(LP, Album) A&M Records, A&M Records SP-4697, SP 4697 1978 Sell This Version
SP-4697 Pablo Cruise Worlds Away(LP, Album) A&M Records SP-4697 Canada 1978 Sell This Version
SP-4697 Pablo Cruise Worlds Away(LP, Album) A&M Records SP-4697 US 1978 Sell This Version
SP-4697 Pablo Cruise Worlds Away(LP, Album) A&M Records SP-4697 US 1978 Sell This Version
L36592 Pablo Cruise Worlds Away(LP, Album) A&M Records L36592 New Zealand 1978 Sell This Version
L36592 Pablo Cruise Worlds Away(LP, Album) A&M Records L36592 Australia 1978 Sell This Version
31C 064 61317 Pablo Cruise Worlds Away(LP, Album) A&M Records 31C 064 61317 Brazil 1978 Sell This Version
SP-4697 Pablo Cruise Worlds Away(LP, Album) A&M Records SP-4697 Canada 1978 Sell This Version
GP-2084 Pablo Cruise Worlds Away(LP, Album) A&M Records GP-2084 Japan 1978 Sell This Version
AMLH 64697 Pablo Cruise Worlds Away(LP, Album) A&M Records AMLH 64697 Spain 1978 Sell This Version
AMLH 64697 Pablo Cruise Worlds Away(LP, Album) A&M Records AMLH 64697 South Africa 1978 Sell This Version
AMLH 64697 Pablo Cruise Worlds Away(LP, Album) A&M Records AMLH 64697 Europe 1978 Sell This Version
AMLH 64697 Pablo Cruise Worlds Away(LP, Album) A&M Records AMLH 64697 Greece 1978 Sell This Version
SP-4697 Pablo Cruise Worlds Away(LP, Album, Club) A&M Records SP-4697 US 1978 Sell This Version
SP-4697 Pablo Cruise Worlds Away(LP, Album, Emb) A&M Records SP-4697 US 1978 Sell This Version
PPSP-4697 Pablo Cruise Worlds Away(LP, Album, PRC) A&M Records PPSP-4697 Portugal 1978 Sell This Version
SP-4697 Pablo Cruise Worlds Away(LP, Album, Pit) A&M Records SP-4697 US 1978 Sell This Version
SP-4697 Pablo Cruise Worlds Away(LP, Album, Promo) A&M Records SP-4697 US 1978 Sell This Version
SP-4697 Pablo Cruise Worlds Away(LP, Album, San) A&M Records SP-4697 US 1978 Sell This Version
SP-4697 Pablo Cruise Worlds Away(LP, Album, Ter) A&M Records SP-4697 US 1978 Sell This Version
AMP-6014 Pablo Cruise Worlds Away(LP, Album, RE) A&M Records AMP-6014 Japan 1979 Sell This Version
NR28 Pablo Cruise Worlds Away(LP, Album, RE, RM, Hal) Nautilus Recordings, A&M Records NR28 US 1981 Sell This Version
NR28, NR-28 Pablo Cruise Worlds Away(LP, Album, RM, DBX) A&M Records, Nautilus Recordings, Nautilus Recordings NR28, NR-28 US 1981 Sell This Version
SP-3198 Pablo Cruise Worlds Away(LP, Album, RE) A&M Records SP-3198 US 1982 Sell This Version
CD 3198, 75021 3198 2 Pablo Cruise Worlds Away(CD, Album, RE) A&M Records, A&M Records CD 3198, 75021 3198 2 US 1988 Sell This Version
CD 3198, 75021 3198 2 Pablo Cruise Worlds Away(CD, Album, RE) A&M Records, A&M Records CD 3198, 75021 3198 2 US 1988 Sell This Version
PCCY-10070 Pablo Cruise Worlds Away(CD, Album, RE) A&M Records PCCY-10070 Japan 1990 Sell This Version
POCM-2008 Pablo Cruise Worlds Away(CD, Album, RE) A&M Records POCM-2008 Japan 1995 Sell This Version
UICY-75591 Pablo Cruise Worlds Away(CD, Album, Ltd, RE, RM, SHM) A&M Records UICY-75591 Japan 2013 Sell This Version
CD 3198, 75021 3198 2 Pablo Cruise Worlds Away(CD, Album, RE) A&M Records, A&M Records CD 3198, 75021 3198 2 US Unknown Sell This Version
CD 3198, 75021 3198 2 Pablo Cruise Worlds Away(CD, Album, RE, RP) A&M Records, A&M Records CD 3198, 75021 3198 2 US Unknown Sell This Version
CS-3198 Pablo Cruise Worlds Away(Cass, Album, RE) A&M Records CS-3198 US Unknown Sell This Version
LM-2897 Pablo Cruise Worlds Away(LP, Album) Liming Record LM-2897 Taiwan Unknown Sell This Version
SP-69844 Pablo Cruise Worlds Away(LP, Album) A&M Records SP-69844 Canada Unknown Sell This Version

Recommendations

Reviews Show All 2 Reviews

Add Review

ispace

ispace

May 30, 2019
referencing Worlds Away, CD, Album, RE, CD 3198, 75021 3198 2
foobar2000 1.4.4 / Dynamic Range Meter 1.1.1
log date: 2019-05-31 16:03:21

--------------------------------------------------------------------------------
Analyzed: Pablo Cruise / Worlds Away [US 1988 CD]
--------------------------------------------------------------------------------

DR Peak RMS Duration Track
--------------------------------------------------------------------------------
DR13 -0.78 dB -16.47 dB 3:49 01-Worlds Away
DR15 -0.03 dB -16.90 dB 4:15 02-Love Will Find A Way
DR13 -0.72 dB -17.27 dB 5:03 03-Family Man
DR14 -0.65 dB -18.54 dB 6:31 04-Runnin'
DR14 -0.54 dB -18.01 dB 4:40 05-Don't Want To Live Without It
DR13 -2.11 dB -17.65 dB 3:32 06-You're Out To Lose
DR13 -0.32 dB -18.32 dB 5:05 07-Always Be Together
DR13 -1.49 dB -17.77 dB 3:52 08-Sailing To Paradise
DR14 -0.60 dB -17.60 dB 4:00 09-I Go To Rio
--------------------------------------------------------------------------------

Number of tracks: 9
Official DR value: DR14

Samplerate: 44100 Hz
Channels: 2
Bits per sample: 16
Bitrate: 897 kbps
Codec: ALAC
================================================================================
bob.dalrymple.7

bob.dalrymple.7

March 3, 2017
referencing Worlds Away, LP, Album, RM, DBX, NR28, NR-28
The photos are of the DBX version of the album which can only be played back through a DBX decoder. Perhaps there should be separate entries for the DBX Nautilus releases.