Patrice Rushen ‎– Patrice

Genre:
Style:
Year:

Tracklist

Music Of The Earth 3:58
When I Found You 5:20
Changes (In Your Life) 4:08
Wishful Thinking 5:08
Let's Sing A Song Of Love 3:43
Hang It Up 5:11
Cha-Cha 3:22
It's Just A Natural Thing 3:20
Didn't You Know 5:17
Play! 4:36

Credits (59)

Versions (23)

Cat# Artist Title (Format) Label Cat# Country Year
6E-160 Patrice Rushen Patrice(LP, Album) Elektra 6E-160 US 1978 Sell This Version
K 452104 Patrice Rushen Patrice(Cass, Album) Elektra K 452104 UK 1978 Sell This Version
P-10585E Patrice Rushen Patrice(LP, Album) Elektra/Asylum Records P-10585E Japan 1978 Sell This Version
6E-160 Patrice Rushen Patrice(LP, Album) Elektra 6E-160 Canada 1978 Sell This Version
K 52104 Patrice Rushen Patrice(LP, Album) Elektra K 52104 UK 1978 Sell This Version
ELK 52104 Patrice Rushen Patrice(LP, Album) Elektra ELK 52104 Netherlands 1978 Sell This Version
6E 160 Patrice Rushen Patrice(LP, Album) Elektra 6E 160 New Zealand 1978 Sell This Version
6E-160 Patrice Rushen Patrice(LP, Album, Promo, Red) Elektra 6E-160 US 1978 Sell This Version
6E-160 Patrice Rushen Patrice(LP, Album, Promo, Whi) Elektra 6E-160 US 1978 Sell This Version
6E-160 Patrice Rushen Patrice(LP, Album, Red) Elektra 6E-160 US 1978 Sell This Version
6E-160 Patrice Rushen Patrice(LP, Album, Red) Elektra 6E-160 US 1978 Sell This Version
6E-160 Patrice Rushen Patrice(LP, Album, TP) Elektra 6E-160 US 1978 Sell This Version
6E-160 Patrice Rushen Patrice(LP, Album, RE, Red) Elektra 6E-160 US 1979 Sell This Version
AMCY-2128 Patrice Rushen Patrice(CD, Album, RE, RM) Elektra/Asylum Records AMCY-2128 Japan 1997 Sell This Version
WOU 160 Patrice Rushen Patrice(CD, Album, RE) Wounded Bird Records WOU 160 US 2003 Sell This Version
WQCP-1192 Patrice Rushen Patrice(CD, Album, RE) Elektra WQCP-1192 Japan 2012 Sell This Version
SMCR 5050 Patrice Rushen Patrice(CD, Album, RE, RM) SoulMusic Records SMCR 5050 UK 2012 Sell This Version
CRCD-3571 Patrice Rushen Patrice(CD, Album, RE) Elektra CRCD-3571 Japan 2013 Sell This Version
WPCR-28048 Patrice Rushen Patrice(CD, Album, RE, RM) Elektra WPCR-28048 Japan 2014 Sell This Version
8122-79569-3 Patrice Rushen Patrice(CD, Album, RE, RM) Elektra/Asylum Records 8122-79569-3 Europe 2014 Sell This Version
81227956936 Patrice Rushen Patrice(CD, Album, RE, RM) Rhino Records (2) 81227956936 UK 2014 Sell This Version
MOVLP1526 Patrice Rushen Patrice(LP, Album, RE, 180) Music On Vinyl MOVLP1526 Europe 2015 Sell This Version
K 52104 Patrice Rushen Patrice(LP, Album) Elektra K 52104 UK Unknown Sell This Version

Recommendations

Reviews Show All 2 Reviews

Add Review

ispace

ispace

October 27, 2018
referencing Patrice, CD, Album, RE, RM, AMCY-2128
foobar2000 1.3.17 / Dynamic Range Meter 1.1.1
log date: 2018-10-27 21:35:21

--------------------------------------------------------------------------------
Analyzed: Patrice Rushen / Patrice [JP 1997 CD]
--------------------------------------------------------------------------------

DR Peak RMS Duration Track
--------------------------------------------------------------------------------
DR11 -0.05 dB -14.01 dB 4:00 01-Music Of The Earth
DR12 -0.53 dB -15.53 dB 5:24 02-When I Found You
DR11 -0.05 dB -14.14 dB 4:10 03-Changes
DR11 -0.05 dB -15.25 dB 5:13 04-Wishful Thinking
DR12 -0.05 dB -14.73 dB 3:47 05-Let's Sing A Song Of Love
DR11 -0.05 dB -13.54 dB 5:14 06-Hang It Up (Edit Version)
DR12 -0.07 dB -14.94 dB 3:30 07-Cha Cha
DR12 -0.05 dB -14.82 dB 3:23 08-Just A Natural Thing
DR11 -1.86 dB -16.72 dB 5:19 09-Didn't You Know
DR13 -0.05 dB -15.35 dB 4:36 10-Play!
--------------------------------------------------------------------------------

Number of tracks: 10
Official DR value: DR12

Samplerate: 44100 Hz
Channels: 2
Bits per sample: 16
Bitrate: 904 kbps
Codec: ALAC
================================================================================
ispace

ispace

August 17, 2018
referencing Patrice, CD, Album, RE, WOU 160
foobar2000 1.3.17 / Dynamic Range Meter 1.1.1
log date: 2018-08-17 19:45:08

--------------------------------------------------------------------------------
Analyzed: Patrice Rushen / Patrice [US 2003 CD]
--------------------------------------------------------------------------------

DR Peak RMS Duration Track
--------------------------------------------------------------------------------
DR10 -0.12 dB -13.00 dB 3:56 01-Music Of The Earth
DR13 -0.28 dB -15.93 dB 5:19 02-When I Found You
DR9 -0.10 dB -11.97 dB 4:08 03-Changes
DR12 -0.32 dB -15.80 dB 5:08 04-Wishful Thinking
DR11 -0.17 dB -12.87 dB 3:42 05-Let's Sing A Song Of Love
DR10 -0.10 dB -12.16 dB 5:12 06-Hang It Up (Edit Version)
DR12 -0.15 dB -14.63 dB 3:24 07-Cha Cha
DR11 -0.15 dB -12.98 dB 3:18 08-Just A Natural Thing
DR12 -0.21 dB -15.22 dB 5:13 09-Didn't You Know
DR10 -0.08 dB -12.66 dB 4:34 10-Play!
--------------------------------------------------------------------------------

Number of tracks: 10
Official DR value: DR11

Samplerate: 44100 Hz
Channels: 2
Bits per sample: 16
Bitrate: 1010 kbps
Codec: ALAC
================================================================================