Patrick Simmons ‎– Arcade

Label:
Elektra ‎– WPCP-4154
Format:
CD, Album
Country:
Released:
Genre:
Style:

Companies, etc.

Other Versions (5 of 15) View All

Cat# Artist Title (Format) Label Cat# Country Year
96-0225-1, 96. 0225-1 Patrick Simmons Arcade(LP, Album) Elektra, Elektra 96-0225-1, 96. 0225-1 Netherlands 1983 Sell This Version
96-0225-1 Patrick Simmons Arcade (LP, Album) Elektra 96-0225-1 Germany 1983 Sell This Version
96-0225-1, 96. 0225-1 Patrick Simmons Arcade(LP, Album) Elektra, Elektra 96-0225-1, 96. 0225-1 Germany 1983 Sell This Version
9 60225-4, SR 60225 Patrick Simmons Arcade(Cass, Album) Elektra, Elektra 9 60225-4, SR 60225 US 1983 Sell This Version
WPCR-17477 Patrick Simmons Arcade(CD, Album, Ltd, RE, SHM) Elektra WPCR-17477 Japan 2016 Sell This Version

Reviews

Add Review

ispace

ispace

August 20, 2018
foobar2000 1.3.17 / Dynamic Range Meter 1.1.1
log date: 2018-08-20 20:46:34

--------------------------------------------------------------------------------
Analyzed: Patrick Simmons / Arcade [JP 1991 CD]
--------------------------------------------------------------------------------

DR Peak RMS Duration Track
--------------------------------------------------------------------------------
DR11 -1.66 dB -15.80 dB 4:00 01-Out On The Streets
DR12 -1.91 dB -16.94 dB 3:23 02-So Wrong
DR12 -0.32 dB -15.79 dB 2:55 03-Don't Make Me Do It
DR12 -0.24 dB -15.76 dB 4:01 04-Why You Givin' Up
DR12 -2.01 dB -16.71 dB 4:06 05-Too Long
DR13 -0.91 dB -15.71 dB 3:43 06-Knocking At Your Door
DR13 -0.60 dB -16.38 dB 3:29 07-If You Want A Little Love
DR12 -1.88 dB -17.26 dB 4:08 08-Have You Seen Her?
DR14 -2.45 dB -18.67 dB 3:20 09-Sue Sad
DR13 -2.93 dB -18.71 dB 3:03 10-Dream About Me
--------------------------------------------------------------------------------

Number of tracks: 10
Official DR value: DR12

Samplerate: 44100 Hz
Channels: 2
Bits per sample: 16
Bitrate: 863 kbps
Codec: ALAC
================================================================================