Paul Simon ‎– Hearts And Bones

Label:
Warner Bros. Records ‎– 9 23942-2
Format:
CD, Album, Target
Country:
Released:
Genre:
Style:

Tracklist

1 Allergies 4:37
2 Hearts And Bones 5:37
3 When Numbers Get Serious 3:25
4 Think Too Much (b) 2:44
5 Song About The Moon 4:07
6 Think Too Much (a) 3:05
7 Train In The Distance 5:11
8 René And Georgette Magritte With Their Dog After The War 3:44
9 Cars Are Cars 3:15
10 The Late Great Johnny Ace 4:45

Companies, etc.

Credits

Notes

Printed in West Germany.

Barcode and Other Identifiers

  • Barcode: 0 7599-23942-2 2
  • Matrix / Runout (Variant 1): 7599 23942-2 2893 300 01
  • Matrix / Runout (Variant 2): 7599 23942-2 2893 300 03
  • Rights Society: GEMA

Other Versions (5 of 51) View All

Cat# Artist Title (Format) Label Cat# Country Year
9 23942-1, 1-23942 Paul Simon Hearts And Bones(LP, Album, All) Warner Bros. Records, Warner Bros. Records 9 23942-1, 1-23942 US 1983 Sell This Version
23942-1 Paul Simon Hearts And Bones(LP, Album) Warner Bros. Records 23942-1 Australia 1983 Sell This Version
88697932692 Paul Simon Hearts And Bones(CD, Album, RE, RM) Legacy, Sony Music 88697932692 Europe 2011 Sell This Version
9 23942-1, 1-23942 Paul Simon Hearts And Bones(LP, Album) Warner Bros. Records, Warner Bros. Records 9 23942-1, 1-23942 US 1983 Sell This Version
7599-23942-2 Paul Simon Hearts And Bones(CD, Album, RE) Warner Bros. Records 7599-23942-2 Germany Unknown Sell This Version

Recommendations

Reviews

Add Review

ispace

ispace

March 1, 2018
foobar2000 1.3.17 / Dynamic Range Meter 1.1.1
log date: 2018-03-01 21:12:45

--------------------------------------------------------------------------------
Analyzed: Paul Simon / Hearts And Bones [WG Target]
--------------------------------------------------------------------------------

DR Peak RMS Duration Track
--------------------------------------------------------------------------------
DR15 0.00 dB -17.89 dB 4:40 01-Allergies
DR14 -1.43 dB -18.80 dB 5:39 02-Hearts And Bones
DR15 0.00 dB -17.25 dB 3:26 03-When Numbers Get Serious
DR12 -4.38 dB -20.67 dB 2:45 04-Think Too Much (b)
DR14 -1.20 dB -18.10 dB 4:09 05-Song About The Moon
DR16 0.00 dB -18.55 dB 3:05 06-Think Too Much (a)
DR14 -0.36 dB -17.33 dB 5:12 07-Train In The Distance
DR12 -2.56 dB -18.34 dB 3:46 08-René And Georgette Magritte With Their Dog After The War
DR15 -0.12 dB -17.78 dB 3:15 09-Cars Are Cars
DR15 0.00 dB -19.03 dB 4:46 10-The Late Great Johnny Ace
--------------------------------------------------------------------------------

Number of tracks: 10
Official DR value: DR14

Samplerate: 44100 Hz
Channels: 2
Bits per sample: 16
Bitrate: 658 kbps
Codec: ALAC
================================================================================