Pestilence ‎– Consuming Impulse

Label:
Hammerheart Records ‎– HHR 2017-14
Format:
2 × CD, Album, Reissue, Remastered
Country:
Released:
Genre:
Style:

Tracklist Hide Credits

Consuming Impulse
1-1 Dehydrated
Lyrics By – Foddis*Music By – Mameli*
3:07
1-2 The Process Of Suffocation
Lyrics By – van Drunen*Music By – Mameli*, Uterwijk*
2:41
1-3 Suspended Animation
Lyrics By – van Drunen*Music By – Mameli*, Uterwijk*
3:28
1-4 The Trauma
Lyrics By – Foddis*Music By – Mameli*
3:20
1-5 Chronic Infection
Lyrics By – Foddis*Music By – Mameli*
3:57
1-6 Out Of The Body
Lyrics By – Foddis*Music By – Mameli*
4:39
1-7 Echoes Of Death
Lyrics By – Foddis*Music By – Mameli*
4:15
1-8 Deify Thy Master
Lyrics By – Foddis*Music By – Mameli*, Uterwijk*
4:52
1-9 Proliferous Souls 2:07
1-10 Reduced To Ashes
Lyrics By – van Drunen*Music By – Mameli*
4:54
Live In Veghel 1989
2-1 City Of The Living Dead / Antropomorphia (Live) 4:40
2-2 Parricide (Live) 4:09
2-3 Echoes Of Death (Live) 4:24
2-4 Subordinate To The Domination (Live) 4:46
2-5 Commandments (Live) 5:33
2-6 Out Of The Body (Live) 4:07
2-7 Chemotherapy (Live) 5:17
2-8 Cycle Of Existence (Live) 3:44
2-9 Suspended Animation (Live) 3:20
Live In Bochum 1988
2-10 The Trauma (Live) 3:22
2-11 Subordinate To The Domination (Live) 4:13
2-12 Cycle Of Existence (Live) 3:20
2-13 Extreme Unction (Live) 1:42
2-14 Chemotherapy (Live) 4:52
2-15 Bacterial Surgery (Live) 5:06
2-16 Systematic Instruction (Live) 3:59
2-17 Consuming Impulse (Demo) 3:46

Companies, etc.

Credits

Notes

Comes in a slip case

Dynamic Range 2CD: DR6

Barcode and Other Identifiers

  • Barcode: 8 715392 171420
  • Matrix / Runout (CD 1): HHR2017-14CD/CD1 D91519
  • Mastering SID Code (CD 1): IFPI LD02
  • Mould SID Code (CD 1): IFPI 5J44
  • Matrix / Runout (CD 2): HHR2017-14CD/CD2 D91410
  • Mastering SID Code (CD 2): IFPI LD02
  • Mould SID Code (CD 2): IFPI 5J44

Other Versions (5 of 35) View All

Cat# Artist Title (Format) Label Cat# Country Year
RCD 9421 Pestilence Consuming Impulse(CD, Album) R/C Records RCD 9421 US 1989 Sell This Version
HHRB-006 Pestilence Consuming Impulse(2xCD, Album, Dlx, RE, RM, Sli) Hammerheart Records Brasil HHRB-006 Brazil 2017 Sell This Version
MZR CD 835 Pestilence Consuming Impulse(CD, Album, RM + CD, Comp + RE, Dig) Mazzar Records MZR CD 835 Russia 2018 Sell This Version
HHR 2017-14 Pestilence Consuming Impulse(LP, Album, RE, RM, Cle) Hammerheart Records HHR 2017-14 Netherlands 2017 Sell This Version
A-165 Pestilence Consuming Impulse(Cass, Album, Unofficial) ALF A-165 Poland 1990 Sell This Version

Recommendations

Reviews Show All 2 Reviews

Add Review

xwwx

xwwx

November 26, 2017
Important INFO for those who want information about the "Dynamic Range"

foobar2000 1.0 / Dynamic Range Meter 1.1.1
log date: 2017-11-22 17:27:07

--------------------------------------------------------------------------------
Analyzed: Pestilence / Consuming Impulse 2CD (Hammerheart Records)
--------------------------------------------------------------------------------

DR Peak RMS Duration Track
--------------------------------------------------------------------------------
DR7 0.00 dB -7.19 dB 3:07 01-Dehydrated
DR6 0.00 dB -7.09 dB 2:41 02-The Process Of Suffocation
DR7 0.00 dB -7.33 dB 3:29 03-Suspended Animation
DR7 0.00 dB -7.36 dB 3:20 04-The Trauma
DR7 0.00 dB -7.55 dB 3:57 05-Chronic Infection
DR7 0.00 dB -7.31 dB 4:39 06-Out Of The Body
DR7 0.00 dB -7.75 dB 4:16 07-Echoes Of Death
DR6 0.00 dB -7.00 dB 4:53 08-Deify Thy Master
DR6 -0.05 dB -7.27 dB 2:08 09-Proliferous Souls
DR7 0.00 dB -7.77 dB 4:54 10-Reduced To Ashes
--------------------------------------------------------------------------------
DR6 -0.06 dB -6.87 dB 4:41 01-City Of The Living Dead / Antropomorphia (Live Veghel 1989)
DR6 -0.07 dB -7.29 dB 4:10 02-Parricide (Live Veghel 1989)
DR6 -0.06 dB -7.23 dB 4:24 03-Echoes Of Death (Live Veghel 1989)
DR7 -0.09 dB -8.05 dB 4:47 04-Subordinate To The Domination (Live Veghel 1989)
DR6 -0.03 dB -6.73 dB 5:33 05-Commandments (Live Veghel 1989)
DR6 -0.06 dB -6.77 dB 4:07 06-Out Of The Body (Live Veghel 1989)
DR5 0.00 dB -6.12 dB 5:17 07-Chemotherapy (Live Veghel 1989)
DR6 -0.04 dB -6.59 dB 3:45 08-Cicle Of Existence (Live Veghel 1989)
DR5 0.00 dB -5.86 dB 3:21 09-Suspended Animation (Live Veghel 1989)
DR5 -0.03 dB -5.92 dB 3:22 10-The Trauma (Live Veghel 1989)
DR7 0.00 dB -7.28 dB 4:13 11-Subordinate To The Domination (Live Bochum 1989)
DR7 0.00 dB -7.37 dB 3:20 12-Cicle Of Existence (Live Bochum 1989)
DR6 0.00 dB -7.24 dB 1:42 13-Extreme Unction (Live Bochum 1989)
DR6 0.00 dB -7.01 dB 4:52 14-Chemotherapy (Live Bochum 1989)
DR7 0.00 dB -7.23 dB 5:06 15-Bacterial Surgery (Live Bochum 1989)
DR6 0.00 dB -7.14 dB 3:59 16-Systematic Instruction (Live Bochum 1989)
DR7 -0.01 dB -7.05 dB 3:47 17-Consuming Impulse (Demo) (Bonus Track)
--------------------------------------------------------------------------------

Number of tracks: 27
Official DR value: DR6

Samplerate: 44100 Hz
Channels: 2
================================================================================