Pete Shelley ‎– XL·1

Genre:
Style:
Year:

Versions (21)

Cat# Artist Title (Format) Label Cat# Country Year
XL 1 Pete Shelley XL·1(LP, Album) Genetic Records (2), Island Records XL 1 UK 1983 Sell This Version
AL 6-8017 Pete Shelley XL-1(LP, Album) Arista AL 6-8017 Canada 1983 Sell This Version
L38057 Pete Shelley XL-1(LP, Album) Island Records L38057 New Zealand 1983 Sell This Version
L38057, BON 4 Pete Shelley XL-1(LP, Album + 12", Single) Festival Records (NZ) Ltd., Island Records, Island Records L38057, BON 4 New Zealand 1983 Sell This Version
XLC 1 Pete Shelley XL1 + Dub Mix Album(Cass, Dol) Genetic Records (2), Island Records XLC 1 Scandinavia 1983 Sell This Version
XLC 1 Pete Shelley XL1 + Dub Mix Album(Cass, Dol) Genetic Records (2), Island Records XLC 1 UK 1983 Sell This Version
C 38057 Pete Shelley XL·1(Cass, Album) Festival Records, Island Records C 38057 Australia 1983 Sell This Version
AC6-8017 Pete Shelley XL·1(Cass, Album) Genetic Records (2) AC6-8017 Canada 1983 Sell This Version
XL1 (XL1) Pete Shelley XL·1(LP, Album) Island Records XL1 (XL1) Italy 1983 Sell This Version
L 38057, XL 1 Pete Shelley XL·1(LP, Album) Festival Records, Island Records, Genetic Records (2) L 38057, XL 1 Australia 1983 Sell This Version
25S-177 Pete Shelley XL·1(LP, Album) Island Records, Polystar 25S-177 Japan 1983 Sell This Version
XL 1 Pete Shelley XL·1(LP, Album) Genetic Records (2), Island Records XL 1 Portugal 1983 Sell This Version
XL1, XL 1 Pete Shelley XL·1(LP, Album) Island Records, Genetic Records (2) XL1, XL 1 Scandinavia 1983 Sell This Version
205 629, 205 629-320 Pete Shelley XL·1(LP, Album, Enh) Island Records, Island Records 205 629, 205 629-320 Germany 1983 Sell This Version
XL1 (XL1) Pete Shelley XL·1(LP, Album, TP) Island Records XL1 (XL1) Italy 1983 Sell This Version
AC 6 8017, AC6-8017 Pete Shelley XL•1(Cass, Album, Dol) Arista, Genetic Records (2), Arista, Genetic Records (2) AC 6 8017, AC6-8017 US 1983 Sell This Version
AL 6-8017, AL6-8017 Pete Shelley XL•1(LP, Album) Arista, Genetic Records (2), Arista, Genetic Records (2) AL 6-8017, AL6-8017 US 1983 Sell This Version
AL 6 8017, AL6-8017 Pete Shelley XL•1(LP, Album) Arista, Genetic Records (2), Arista, Genetic Records (2) AL 6 8017, AL6-8017 US 1983 Sell This Version
GRACD 202 Pete Shelley XL·1(CD, Album, RE) The Grapevine Label GRACD 202 UK 1999 Sell This Version
VARCD002 Pete Shelley XL·1(CD, Album, RE, RM) Western Songs VARCD002 UK 2006 Sell This Version
VARCD002 Pete Shelley XL·1(CD, Album, RE, RM, RP, Jew) Western Songs VARCD002 UK Unknown Sell This Version

Recommendations

Reviews Show All 2 Reviews

Add Review

ispace

ispace

January 15, 2019
referencing XL·1, CD, Album, RE, GRACD 202
foobar2000 1.3.17 / Dynamic Range Meter 1.1.1
log date: 2019-01-15 22:17:52

--------------------------------------------------------------------------------
Analyzed: Pete Shelley / XL1 [UK 1999 CD]
--------------------------------------------------------------------------------

DR Peak RMS Duration Track
--------------------------------------------------------------------------------
DR12 -1.18 dB -14.20 dB 3:18 01-Telephone Operator
DR13 -0.03 dB -15.63 dB 4:24 02-If You Ask Me I (Won't Say No)
DR12 -0.69 dB -15.73 dB 5:07 03-What Was Heaven?
DR13 -1.43 dB -15.68 dB 4:58 04-You Know Better Than I Know
DR11 -4.26 dB -18.32 dB 3:15 05-Twilight
DR12 -1.01 dB -15.32 dB 4:08 06-(Millions Of People) No One Like You
DR13 -0.01 dB -14.21 dB 6:44 07-Many A Time
DR12 -1.04 dB -16.30 dB 3:04 08-I Just Wanna Touch
DR12 -3.19 dB -16.34 dB 3:03 09-You And I
DR12 -2.24 dB -16.31 dB 3:29 10-XL1
DR14 -1.52 dB -17.37 dB 5:46 11-If You Ask Me / No One Like You (Dub)
DR14 -1.20 dB -17.18 dB 13:13 12-Telephone Operator / Many A Time (Dub)
--------------------------------------------------------------------------------

Number of tracks: 12
Official DR value: DR13

Samplerate: 44100 Hz
Channels: 2
Bits per sample: 16
Bitrate: 847 kbps
Codec: ALAC
================================================================================
tigermountain7

tigermountain7

October 19, 2017
referencing XL•1, Cass, Album, Dol, AC 6 8017, AC6-8017
Love this album. Heard this by way of Buzzcocks, of course. "What Was Heaven" is my favorite.