Peter Allen ‎– Bi-Coastal

Genre:
Pop
Style:
Year:

Versions (18)

Cat# Artist Title (Format) Label Cat# Country Year
SP-4825 Peter Allen Bi-Coastal(LP, Album, Ter) A&M Records SP-4825 US 1980 Sell This Version
CS-4825 Peter Allen Bi-Coastal(Cass, Album) A&M Records CS-4825 US 1980 Sell This Version
SP-4825 Peter Allen Bi-Coastal(LP, Album) A&M Records SP-4825 Australia 1980 Sell This Version
SP-4825 Peter Allen Bi-Coastal(LP, Album) A&M Records SP-4825 Canada 1980 Sell This Version
SP-4825 Peter Allen Bi-Coastal(LP, Album) A&M Records SP-4825 Canada 1980 Sell This Version
AMLH 64825 Peter Allen Bi-Coastal(LP, Album) A&M Records AMLH 64825 Netherlands 1980 Sell This Version
AMLH 64825 Peter Allen Bi-Coastal(LP, Album) A&M Records AMLH 64825 UK 1980 Sell This Version
2PSP 4825 Peter Allen Bi-Coastal(LP, Album) A&M Records 2PSP 4825 Portugal 1980 Sell This Version
AMP-28019, SP-4825 Peter Allen Bi-Coastal(LP, Album) A&M Records, A&M Records AMP-28019, SP-4825 Japan 1980 Sell This Version
AMP-28019, SP-4825 Peter Allen Bi-Coastal(LP, Album, Promo) A&M Records, A&M Records AMP-28019, SP-4825 Japan 1980 Sell This Version
SP-4825 Peter Allen Bi-Coastal(LP, Album, San) A&M Records SP-4825 US 1980 Sell This Version
CD 3315 Peter Allen Bi-Coastal(CD, Album) A&M Records CD 3315 US 1986 Sell This Version
D32Y3542 Peter Allen Bi-Coastal(CD, Album) A&M Records D32Y3542 Japan 1987 Sell This Version
CD 4825 Peter Allen Bi-Coastal(CD, Album, RE) A&M Records CD 4825 US 1988 Sell This Version
UICY-3118 Peter Allen Bi-Coastal(CD, Album, RE) A&M Records UICY-3118 Japan 2001 Sell This Version
UICY-94653 Peter Allen Bi-Coastal(CD, Album, RM, Pap) A&M Records UICY-94653 Japan 2010 Sell This Version
UICY-15149 Peter Allen Bi-Coastal(CD, Album, RE, RM, SHM) A&M Records UICY-15149 Japan 2012 Sell This Version
L 37428, L-37428 Peter Allen Bi-Coastal(LP, Album, RE) A&M Records, A&M Records L 37428, L-37428 Australia & New Zealand Unknown Sell This Version

Recommendations

Reviews Show All 3 Reviews

Add Review

ispace

ispace

December 17, 2018
referencing Bi-Coastal, CD, Album, RE, CD 4825
foobar2000 1.3.17 / Dynamic Range Meter 1.1.1
log date: 2018-12-17 19:20:14

--------------------------------------------------------------------------------
Analyzed: Peter Allen / Bi-Coastal [US 1988 CD]
--------------------------------------------------------------------------------

DR Peak RMS Duration Track
--------------------------------------------------------------------------------
DR13 -1.57 dB -17.47 dB 3:54 01-One Step Over The Borderline
DR13 -0.64 dB -18.56 dB 4:05 02-Fly Away
DR13 -0.81 dB -16.56 dB 4:26 03-Bi-Coastal
DR12 -1.97 dB -17.52 dB 4:36 04-I Don't Go Shopping
DR13 -2.55 dB -17.78 dB 3:26 05-Hit In The Heart
DR15 0.00 dB -16.93 dB 4:14 06-I Could Really Show You Around
DR12 -1.56 dB -18.05 dB 4:04 07-Somebody's Angel
DR12 -3.39 dB -19.38 dB 3:30 08-Simon
DR15 -0.06 dB -17.01 dB 4:02 09-Pass This Time
DR14 -0.04 dB -19.40 dB 6:05 10-When This Love Affair Is Over
--------------------------------------------------------------------------------

Number of tracks: 10
Official DR value: DR13

Samplerate: 44100 Hz
Channels: 2
Bits per sample: 16
Bitrate: 773 kbps
Codec: ALAC
================================================================================
ispace

ispace

November 1, 2018
referencing Bi-Coastal, CD, Album, RE, UICY-3118
foobar2000 1.3.17 / Dynamic Range Meter 1.1.1
log date: 2018-11-01 20:04:32

--------------------------------------------------------------------------------
Analyzed: Peter Allen / Bi-Coastal [JP 2001 CD]
--------------------------------------------------------------------------------

DR Peak RMS Duration Track
--------------------------------------------------------------------------------
DR7 -0.18 dB -9.64 dB 3:55 01-One Step Over The Borderline
DR8 -0.18 dB -11.52 dB 4:05 02-Fly Away
DR8 -0.17 dB -10.50 dB 4:26 03-Bi-Coastal
DR8 -0.18 dB -11.35 dB 4:36 04-I Don't Go Shopping
DR9 -0.18 dB -10.34 dB 3:26 05-Hit In The Heart
DR9 -0.18 dB -10.74 dB 4:14 06-I Could Really Show You Around
DR8 -0.18 dB -12.46 dB 4:04 07-Somebody's Angel
DR11 -0.18 dB -14.20 dB 3:30 08-Simon
DR8 -0.17 dB -10.26 dB 4:02 09-Pass This Time
DR10 -0.18 dB -13.39 dB 6:06 10-When This Love Affair Is Over
--------------------------------------------------------------------------------

Number of tracks: 10
Official DR value: DR9

Samplerate: 44100 Hz
Channels: 2
Bits per sample: 16
Bitrate: 858 kbps
Codec: ALAC
================================================================================
ispace

ispace

March 22, 2018
referencing Bi-Coastal, CD, Album, RM, Pap, UICY-94653
foobar2000 1.3.17 / Dynamic Range Meter 1.1.1
log date: 2018-03-22 19:24:58

--------------------------------------------------------------------------------
Analyzed: Peter Allen / Bi-Coastal [JP 2010 SHM CD]
--------------------------------------------------------------------------------

DR Peak RMS Duration Track
--------------------------------------------------------------------------------
DR7 -0.18 dB -9.64 dB 3:55 01-One Step Over The Borderline
DR8 -0.18 dB -11.52 dB 4:05 02-Fly Away
DR8 -0.17 dB -10.50 dB 4:26 03-Bi-Coastal
DR8 -0.18 dB -11.35 dB 4:36 04-I Don't Go Shopping
DR9 -0.18 dB -10.35 dB 3:26 05-Hit In The Heart
DR9 -0.18 dB -10.74 dB 4:14 06-I Could Really Show You Around
DR8 -0.18 dB -12.46 dB 4:04 07-Somebody's Angel
DR11 -0.18 dB -14.20 dB 3:30 08-Simon
DR8 -0.17 dB -10.26 dB 4:02 09-Pass This Time
DR10 -0.18 dB -13.39 dB 6:06 10-When This Love Affair Is Over
--------------------------------------------------------------------------------

Number of tracks: 10
Official DR value: DR9

Samplerate: 44100 Hz
Channels: 2
Bits per sample: 16
Bitrate: 858 kbps
Codec: ALAC
================================================================================