Pink Floyd ‎– The Wall

Label:
Harvest ‎– CDP 7 46037 2
Format:
2 × CD, Album, Stereo
Country:
Released:
 
Genre:
Style:
 

Tracklist

1-01 In the Flesh? 3:18
1-02 The Thin Ice 2:29
1-03 Another Brick in the Wall (Part 1) 3:41
1-04 The Happiest Days of Our Lives 1:21
1-05 Another Brick in the Wall (Part 2) 3:56
1-06 Mother 5:33
1-07 Goodbye Blue Sky 2:48
1-08 Empty Spaces 5:37
1-09 Young Lust 2:03
1-10 One of My Turns 1:34
1-11 Don't Leave Me Now 4:23
1-12 Another Brick in the Wall (Part 3) 1:17
1-13 Goodbye Cruel World 1:06
2-01 Hey You 4:41
2-02 Is There Anybody Out There? 2:46
2-03 Nobody Home 3:22
2-04 Vera 1:35
2-05 Bring the Boys Back Home 0:58
2-06 Comfortably Numb 6:42
2-07 The Show Must Go on 1:37
2-08 In the Flesh 4:17
2-09 Run Like Hell 4:23
2-10 Waiting for the Worms 3:57
2-11 Stop 0:34
2-12 The Trial 5:17
2-13 Outside the Wall 1:44

Notes

Matrix Codes:
Disc 1: CDP 7 46036 2 2B3
Disc 2: CDP 7 46037 2 8B3 T0

Rights Society:
BIEM/JASRAC

----------------------------------------------------------------------------------------------
DR Scores for checking/validating your release
----------------------------------------------------------------------------------------------
DR Peak RMS Filename (Apple Lossless Codec)
----------------------------------------------------------------------------------------------

DR12 -5.52 dB -21.59 dB 1-01 In The Flesh_.m4a
DR14 -8.38 dB -26.82 dB 1-02 The Thin Ice.m4a
DR13 -7.38 dB -25.29 dB 1-03 Another Brick In The Wall, Pt. 1.m4a
DR15 -5.78 dB -23.68 dB 1-04 The Happiest Days Of Our Lives.m4a
DR15 -7.11 dB -25.08 dB 1-05 Another Brick In The Wall, Pt. 2.m4a
DR18 -4.76 dB -26.99 dB 1-06 Mother.m4a
DR11 -12.91 dB -27.12 dB 1-07 Goodbye Blue Sky.m4a
DR15 -6.15 dB -24.10 dB 1-08 Empty Spaces.m4a
DR13 -14.79 dB -36.39 dB 1-09 Young Lust.m4a
DR14 -5.12 dB -21.65 dB 1-10 One Of My Turns.m4a
DR16 -4.90 dB -26.87 dB 1-11 Don't Leave Me Now.m4a
DR9 -21.80 dB -34.18 dB 1-13 Goodbye Cruel World.m4a
DR14 -5.53 dB -23.77 dB 1-12 Another Brick In The Wall, Pt. 3.m4a
DR14 -7.60 dB -25.64 dB 2-01 Hey You.m4a
DR14 -8.98 dB -29.46 dB 2-02 Is There Anybody Out There_.m4a
DR12 -12.80 dB -28.44 dB 2-03 Nobody Home.m4a
DR11 -14.16 dB -29.19 dB 2-04 Vera.m4a
DR12 -4.38 dB -20.04 dB 2-05 Bring The Boys Back Home.m4a
DR13 -7.02 dB -22.72 dB 2-06 Comfortably Numb.m4a
DR13 -9.71 dB -24.99 dB 2-07 The Show Must Go On.m4a
DR15 -6.96 dB -24.13 dB 2-08 In The Flesh.m4a
DR15 -6.03 dB -23.94 dB 2-09 Run Like Hell.m4a
DR13 -7.35 dB -23.06 dB 2-10 Waiting For The Worms.m4a
DR3 -6.74 dB -32.95 dB 2-11 Stop.m4a
DR13 -9.24 dB -25.55 dB 2-12 The Trial.m4a
DR12 -25.05 dB -43.29 dB 2-13 Outside The Wall.m4a
----------------------------------------------------------------------------------------------

Number of files: 26
Official DR value: DR13

==============================================================================================

Other Versions (5 of 611) View All

Cat# Artist Title (Format) Label Cat# Country Year
SHDW 411 Pink Floyd The Wall(2xLP, Album, Gat) Harvest SHDW 411 UK 1979 Sell This Version
7243 8 31243 2 9, CDEMD 1071 Pink Floyd The Wall(2xCD, Album, RE, RM, RP) EMI United Kingdom, EMI United Kingdom, Harvest, Harvest 7243 8 31243 2 9, CDEMD 1071 Europe Unknown Sell This Version
PC2 36183 K9, PC2 36183, 36183 Pink Floyd The Wall(2xLP, Album, Gat) Columbia, Columbia, Columbia PC2 36183 K9, PC2 36183, 36183 Canada 1979 Sell This Version
CDS 7 46036 8 Pink Floyd The Wall(2xCD, Album, RE) Harvest CDS 7 46036 8 UK 1987 Sell This Version
1C19863410 Pink Floyd The Wall (Vol Two)(Cass, Album) EMI 1C19863410 Unknown Sell This Version

Reviews