Randy Vanwarmer ‎– Warmer

Label:
Bearsville ‎– PCCY-00739
Format:
CD, Album
Country:
Released:
Genre:
Style:

Credits

  • ProducerDel Newman
  • Written By – Randy Vanwarmer

Other Versions (5 of 27) View All

Cat# Artist Title (Format) Label Cat# Country Year
BRK 6988 Randy Vanwarmer Warmer(LP, Album) Bearsville BRK 6988 US 1979 Sell This Version
QBR 6988 Randy Vanwarmer Warmer(LP, Album) Bearsville QBR 6988 Canada 1979 Sell This Version
BRK 6988 Randy Vanwarmer Warmer(LP, Album) Bearsville BRK 6988 Sweden 1979 Sell This Version
67362 Randy Vanwarmer Warmer(LP, Album) Carrere 67362 France 1979 Sell This Version
25AP 1735 Randy Vanwarmer Warmer(LP, Album, Promo) Bearsville, CBS/Sony 25AP 1735 Japan 1979 Sell This Version

Reviews

Add Review

ispace

ispace

April 3, 2018
foobar2000 1.3.17 / Dynamic Range Meter 1.1.1
log date: 2018-04-03 19:19:28

--------------------------------------------------------------------------------
Analyzed: Randy VanWarmer / Warmer [JP 1995 CD]
--------------------------------------------------------------------------------

DR Peak RMS Duration Track
--------------------------------------------------------------------------------
DR13 -0.31 dB -16.36 dB 3:08 01-Losing Out On Love
DR13 -0.58 dB -18.13 dB 4:03 02-Just When I Needed You Most
DR13 -0.70 dB -17.99 dB 4:05 03-Your Light
DR14 -1.20 dB -17.27 dB 3:05 04-Gotta Get Out Of Here
DR14 -0.79 dB -16.59 dB 3:35 05-Convincing Lies
DR13 -0.64 dB -17.55 dB 4:29 06-Call Me
DR14 -0.71 dB -17.99 dB 3:22 07-Forever Loving You
DR14 -0.22 dB -16.91 dB 3:50 08-Deeper And Deeper
DR14 -0.53 dB -17.34 dB 3:19 09-I Could Sing
DR12 -3.07 dB -19.97 dB 4:36 10-The One Who Loves You
--------------------------------------------------------------------------------

Number of tracks: 10
Official DR value: DR13

Samplerate: 44100 Hz
Channels: 2
Bits per sample: 16
Bitrate: 756 kbps
Codec: ALAC
================================================================================