Rick Astley ‎– Hold Me In Your Arms [Deluxe 2 CD Edition]

Label:
Edsel Records ‎– EDSD 2079
Format:
CD, Album, Reissue
CD, Compilation
All Media, Deluxe Edition
Country:
Released:
Genre:
Style:

Tracklist Hide Credits

Hold Me In Your Arms
1-1 She Wants To Dance With Me 3:14
1-2 Take Me To Your Heart 3:27
1-3 I Don't Want To Lose Her 3:31
1-4 Giving Up On Love 4:01
1-5 Ain't Too Proud To Beg / Put Yourself In My Place 4:19
1-6 Till Then (Time Stands Still) 3:14
1-7 Dial My Number 4:09
1-8 I'll Never Let You Down 3:55
1-9 I Don't Want To Be Your Lover 3:58
1-10 Hold Me In Your Arms 4:32
Bonus Tracks
1-11 My Arms Keep Missing You 3:14
1-12 I'll Be Fine 3:44
1-13 She Wants To Dance With Me (Extended Mix)
Remix – Phil Harding
7:14
1-14 Take Me To Your Heart (Autumn Leaves Mix)
Remix – Dave Ford
6:38
1-15 My Arms Keep Missing You (The No L Mix)
Remix – Phil Harding
6:46
1-16 Hold Me In Your Arms (Extended Mix)
Remix – Phil Harding
7:37
1-17 Rick's Hit Mix (Megamix)
DJ Mix – Tony King
5:49
The Remixes
2-1 My Arms Keep Missing You (The "Where's Harry?" Remix)
Remix – Pete Hammond
3:15
2-2 Giving Up On Love (7" R&B Mix)
Remix – Phil Harding & Ian Curnow
4:07
2-3 She Wants To Dance With Me (Bordering On A Collie Mix)
Remix – Phil Harding
6:04
2-4 Take Me To Your Heart (The Dick Dastardly Mix)
Remix – Pete Hammond
6:59
2-5 Hold Me In Your Arms (Hold Me In Your Prayers Mix)
Remix – Tony King
6:53
2-6 Giving Up On Love (12" R&B Extended Mix)
Remix – Phil Harding & Ian Curnow
7:08
2-7 My Arms Keep Missing You (Bruno's Mix)
Remix – Pete Hammond
6:15
2-8 She Wants To Dance With Me (US Remix)
Remix – Pete Hammond
5:42
2-9 Giving Up On Love (12" Pop Extended Mix)
Remix – Phil Harding & Ian Curnow
7:18
2-10 She Wants To Dance With Me (Dave Ford Remix)
Remix – Dave Ford
5:00
2-11 My Arms Keep Missing You (Dub)
Remix – Phil Harding
4:54
2-12 Giving Up On Love (12" Dub Mix)
Remix – Phil Harding & Ian Curnow
5:00
2-13 She Wants To Dance With Me (Instrumental) 4:53
2-14 Take Me To Your Heart (Instrumental) 3:27

Companies, etc.

Credits

Notes

All tracks licensed courtesy of Sony Music Entertainment UK Ltd / BMG Rights Management UK.

Marketed by Edsel.
Manufactured in the EU.

Ⓟ 1987, 1988, 1989, 2010 PWL.
Ⓒ 2010 Demon Music Group Ltd.

Barcode and Other Identifiers

  • Barcode: 740155207939
  • Matrix / Runout (CD 1): EDSD2079/A *035912
  • Matrix / Runout (CD 2): EDSD2079/B *035913
  • Label Code: LC 13223

Other Versions (5 of 55) View All

Cat# Artist Title (Format) Label Cat# Country Year
PD 71932 Rick Astley Hold Me In Your Arms(CD, Album) RCA PD 71932 Europe 1988 Sell This Version
PL 71932, SRPC -171 Rick Astley Hold Me In Your Arms(Cass, Album) RCA, Sequel Records PL 71932, SRPC -171 1998 Sell This Version
8589-1-R Rick Astley Hold Me In Your Arms(LP, Album) RCA 8589-1-R US 1988 Sell This Version
PK 71932, BMG0037 Rick Astley Hold Me In Your Arms(Cass, Album) RCA, BMG Music PK 71932, BMG0037 Indonesia 1988 Sell This Version
PD 71932 Rick Astley Hold Me In Your Arms(CD, Album) RCA PD 71932 Indonesia 1988 Sell This Version

Recommendations

Reviews Show All 2 Reviews

Add Review

mundo-melhor

mundo-melhor

September 11, 2018
What a nice release!! I have many japanese releases os so many artists...But it's too bad my brazilian Paypal accoun t is not accepeted at Discogs for me to become a seller....
ispace

ispace

June 27, 2018
foobar2000 1.3.17 / Dynamic Range Meter 1.1.1
log date: 2018-06-27 18:41:36

--------------------------------------------------------------------------------
Analyzed: Rick Astley / Hold Me In Your Arms (Deluxe Edition)
--------------------------------------------------------------------------------

DR Peak RMS Duration Track
--------------------------------------------------------------------------------
DR10 -0.05 dB -11.11 dB 3:17 01-She Wants To Dance With Me
DR10 -0.05 dB -11.14 dB 3:30 02-Take Me To Your Heart
DR9 -0.05 dB -10.40 dB 3:33 03-I Don't Want To Lose Her
DR9 -0.05 dB -10.72 dB 4:04 04-Giving Up On Love
DR10 -0.05 dB -11.34 dB 4:19 05-Ain't Too Proud To Beg
DR9 -0.05 dB -10.51 dB 3:18 06-Till Then (Time Stands Still)
DR10 -0.05 dB -11.27 dB 4:11 07-Dial My Number
DR10 -0.05 dB -11.25 dB 3:58 08-I'll Never Let You Down
DR10 -0.05 dB -11.20 dB 4:01 09-I Don't Want To Be Your Lover
DR9 -0.05 dB -11.27 dB 4:33 10-Hold Me In Your Arms
DR10 -0.05 dB -11.78 dB 3:15 11-My Arms Keep Missing You
DR10 -0.05 dB -11.32 dB 3:42 12-I'll Be Fine
DR11 -0.05 dB -12.55 dB 7:10 13-She Wants To Dance With Me (Extended Mix)
DR10 -0.05 dB -11.26 dB 6:40 14-Take Me To Your Heart (Autumn Leaves Mix)
DR11 -0.05 dB -12.94 dB 6:47 15-My Arms Keep Missing You (The No L Mix)
DR10 -0.05 dB -12.61 dB 7:38 16-Hold Me In Your Arms (Extended Mix)
DR11 -0.05 dB -12.41 dB 5:51 17-Rick's Hit Mix (Megamix)
--------------------------------------------------------------------------------

Number of tracks: 17
Official DR value: DR10

Samplerate: 44100 Hz
Channels: 2
Bits per sample: 16
Bitrate: 985 kbps
Codec: ALAC
================================================================================

foobar2000 1.3.17 / Dynamic Range Meter 1.1.1
log date: 2018-06-27 18:44:36

--------------------------------------------------------------------------------
Analyzed: Rick Astley / Hold Me In Your Arms (Deluxe Edition)
--------------------------------------------------------------------------------

DR Peak RMS Duration Track
--------------------------------------------------------------------------------
DR8 -0.05 dB -9.61 dB 3:16 01-My Arms Keep Missing You (The "Where's Harry?" Remix)
DR9 -0.05 dB -10.45 dB 4:08 02-Giving Up On Love (7" R&B Mix)
DR10 -0.05 dB -11.93 dB 6:07 03-She Wants To Dance With Me (Bordering On A Collie Mix)
DR8 -0.05 dB -10.36 dB 7:00 04-Take Me To Your Heart (The Dick Dastardly Mix)
DR8 -0.05 dB -10.15 dB 6:52 05-Hold Me In Your Arms (Hold Me In Your Prayers Mix)
DR8 -0.05 dB -9.46 dB 7:08 06-Giving Up On Love (12" R&B Extended Mix)
DR9 -0.05 dB -10.55 dB 6:17 07-My Arms Keep Missing You (Bruno's Mix)
DR9 -0.05 dB -10.80 dB 5:44 08-She Wants To Dance With Me (US Remix)
DR9 -0.05 dB -10.45 dB 7:20 09-Giving Up On Love (12" Pop Extended Mix)
DR6 -0.05 dB -7.92 dB 5:05 10-She Wants To Dance With Me (Dave Ford Remix)
DR10 -0.05 dB -11.69 dB 4:57 11-My Arms Keep Missing You (Dub)
DR9 -0.05 dB -10.73 dB 4:53 12-Giving Up On Love (12" Dub Mix)
DR11 -0.05 dB -11.95 dB 4:56 13-She Wants To Dance With Me (Instrumental)
DR10 -0.05 dB -10.69 dB 3:31 14-Take Me To Your Heart (Instrumental)
--------------------------------------------------------------------------------

Number of tracks: 14
Official DR value: DR9

Samplerate: 44100 Hz
Channels: 2
Bits per sample: 16
Bitrate: 951 kbps
Codec: ALAC
================================================================================