Rick Astley ‎– Whenever You Need Somebody

Label:
Edsel Records ‎– EDSD 2078
Format:
CD, Album, Reissue
CD, Compilation
All Media, Deluxe Edition
Country:
Released:
Genre:
Style:

Tracklist Hide Credits

Whenever You Need Somebody
1-01 Rick Astley Never Gonna Give You Up 3:35
1-02 Rick Astley Whenever You Need Somebody 3:55
1-03 Rick Astley Together Forever 3:27
1-04 Rick Astley It Would Take A Strong Strong Man 3:41
1-05 Rick Astley The Love Has Gone
Written-By – Spatsley*
4:20
1-06 Rick Astley Don't Say Goodbye 4:10
1-07 Rick Astley Slipping Away
Saxophone – Gary Barnacle
3:53
1-08 Rick Astley No More Looking For Love 3:14
1-09 Rick Astley You Move Me 3:43
1-10 Rick Astley When I Fall In Love
Written-By – Heyman*, Young*
3:03
Bonus Tracks
1-11 Rick* & Lisa* When You Gonna (7" Mix)
Remix – Phil Harding
3:32
1-12 Rick Astley Just Good Friends 3:47
1-13 Rick Astley I'll Never Set You Free 3:27
1-14 Rick* & Lisa* When You Gonna (Extended Mix)
Remix – Phil Harding
7:34
1-15 Rick Astley Never Gonna Give You Up (Cake Mix)
Remix – Pete Hammond
5:49
1-16 Rick Astley Whenever You Need Somebody (Lonely Hearts Mix)
Remix – Pete Hammond
7:35
1-17 Rick Astley Together Forever (Lover's Leap Extended Remix)
Remix – Pete Hammond
7:05
The Remixes
2-01 Rick Astley Whenever You Need Somebody (7" Mix)
Remix – Pete Hammond
3:29
2-02 Rick Astley Together Forever (Lover's Leap Remix)
Remix – Pete Hammond
3:23
2-03 Rick* & Lisa* When You Gonna (The Borough Anarchy Mix)
Mixed By – The Extra Beat Boys
7:54
2-04 Rick Astley Never Gonna Give You Up (Escape From Newton Mix)
Mixed By – Pete Hammond
6:26
2-05 Rick Astley Whenever You Need Somebody (Rick Sets It Off Mix)
Remix – Pete Hammond, The Funky Sisters
7:55
2-06 Rick Astley Together Forever (House Of Love Mix)
Remix – Pete Hammond
6:57
2-07 Rick Astley It Would Take A Strong Strong Man (Matt's Jazzy Guitar Mix)
Remix – Pete Hammond
7:48
2-08 Rick* & Lisa* When You Gonna (Home Boy Mix)
Remix – Phil Harding
5:59
2-09 Rick Astley Never Gonna Give You Up (Escape To New York Mix)
Remix – The Extra Beat Boys
7:03
2-10 Rick Astley Whenever You Need Somebody (XK 150 Mix)
Remix – Pete Hammond
4:39
2-11 Rick* & Lisa* When You Gonna (Bonus Beats Mix)
Remix – Phil Harding
4:47
2-12 Rick Astley Never Gonna Give You Up (Instrumental) 6:18
2-13 Rick Astley Whenever You Need Somebody (Instrumental) 3:52
2-14 Rick Astley It Would Take A Strong Strong Man (Instrumental) 3:32

Companies, etc.

Credits

Notes

All tracks licensed courtesy of Sony Music Entertainment UK Ltd / BMG Rights Management UK.

Marketed by Edsel.
Manufactured in the EU.

Ⓟ 1987, 1988 PWL.
Ⓒ 2010 Demon Music Group Ltd.

Barcode and Other Identifiers

  • Barcode: 740155207830
  • Matrix / Runout (CD 1): EDSD2078/A *035910
  • Matrix / Runout (CD 2): EDSD2078/B *035953
  • Label Code: LC 13223

Other Versions (5 of 63) View All

Cat# Artist Title (Format) Label Cat# Country Year
PD 71529 Rick Astley Whenever You Need Somebody(CD, Album) RCA, PWL PD 71529 Europe 1987 Sell This Version
RPL-8394 Rick Astley Whenever You Need Somebody(LP, Album) RCA RPL-8394 Japan 1988 Sell This Version
6822-4-R Rick Astley Whenever You Need Somebody(Cass, Album) RCA 6822-4-R US 1987 Sell This Version
6822-1-R Rick Astley Whenever You Need Somebody(LP, Album) RCA Victor 6822-1-R US 1987 Sell This Version
PL 71529 Rick Astley Whenever You Need Somebody(LP, Album) RCA PL 71529 Hong Kong 1987 Sell This Version

Recommendations

Reviews

Add Review

ispace

ispace

April 12, 2018
DR ratings for original album tracks:

foobar2000 1.3.17 / Dynamic Range Meter 1.1.1
log date: 2018-04-12 21:02:01

--------------------------------------------------------------------------------
Analyzed: Rick Astley / Whenever You Need Somebody (Deluxe Edition)
--------------------------------------------------------------------------------

DR Peak RMS Duration Track
--------------------------------------------------------------------------------
DR8 -0.05 dB -10.53 dB 3:35 01-Never Gonna Give You Up
DR10 -0.05 dB -11.38 dB 3:55 02-Whenever You Need Somebody
DR10 -0.05 dB -11.09 dB 3:26 03-Together Forever
DR10 -0.05 dB -11.83 dB 3:42 04-It Would Take A Strong Strong Man
DR10 -0.05 dB -11.38 dB 4:21 05-The Love Has Gone
DR9 -0.05 dB -10.79 dB 4:10 06-Don't Say Goodbye
DR10 -0.05 dB -11.04 dB 3:54 07-Slipping Away
DR10 -0.05 dB -11.56 dB 3:15 08-No More Looking For Love
DR9 -0.05 dB -11.45 dB 3:43 09-You Move Me
DR11 -0.05 dB -13.72 dB 3:04 10-When I Fall In Love
--------------------------------------------------------------------------------

Number of tracks: 10
Official DR value: DR10

Samplerate: 44100 Hz
Channels: 2
Bits per sample: 16
Bitrate: 832 kbps
Codec: ALAC
================================================================================