Robbie Dupree ‎– Walking On Water

Label:
Miramar ‎– MPCD 7002
Format:
CD, Album
Country:
Released:
Genre:
Pop
Style:
 

Tracklist

Barcode and Other Identifiers

  • Barcode: 0 9006-27002-2 2

Other Versions (5 of 5) View All

Cat# Artist Title (Format) Label Cat# Country Year
PSCR-6017 Robbie Dupree Walking On Water(CD, Album, RE, Wit) Polystar PSCR-6017 Japan 2001 Sell This Version
PSCW-5013 Robbie Dupree Walking On Water(CD, Album) Geronimo (2) PSCW-5013 Japan 1993 Sell This Version
PSCR-9192 Robbie Dupree Walking On Water(CD, Album, RE, SHM) Miramar PSCR-9192 Japan 2009 Sell This Version
MPC 7002 Robbie Dupree Walking On Water(Cass, Dol) Miramar MPC 7002 US 1993 Sell This Version
BEV 003, 871 003 Robbie Dupree Walking On Water(CD, Album) Beverly Records (2), Beverly Records (2) BEV 003, 871 003 Germany 1994 Sell This Version

Recommendations

Reviews

Add Review

ispace

ispace

July 13, 2018
foobar2000 1.3.17 / Dynamic Range Meter 1.1.1
log date: 2018-07-13 19:15:38

--------------------------------------------------------------------------------
Analyzed: Robbie Dupree / Walking On The Water
--------------------------------------------------------------------------------

DR Peak RMS Duration Track
--------------------------------------------------------------------------------
DR11 0.00 dB -13.98 dB 4:24 01-Walking On Water
DR12 0.00 dB -14.94 dB 3:41 02-Goodbye To L. A.
DR12 0.00 dB -14.74 dB 4:41 03-Money
DR12 0.00 dB -14.37 dB 4:53 04-Return To Her
DR12 0.00 dB -13.91 dB 3:33 05-Learn To Cry
DR12 0.00 dB -13.76 dB 4:34 06-If We Try Again
DR12 0.00 dB -14.32 dB 4:50 07-Walls Come Down
DR12 0.00 dB -13.97 dB 4:37 08-Right Direction
DR13 0.00 dB -15.39 dB 5:11 09-Evil Eye
--------------------------------------------------------------------------------

Number of tracks: 9
Official DR value: DR12

Samplerate: 44100 Hz
Channels: 2
Bits per sample: 16
Bitrate: 799 kbps
Codec: ALAC
================================================================================