Robert Tepper ‎– No Easy Way Out

Label:
Scotti Bros. Records ‎– ZK 40128
Format:
CD, Album, Stereo
Country:
Released:
Genre:
Style:

Tracklist

1 No Easy Way Out 4:20
2 Angel On The City 4:30
3 Don't Walk Away 4:21
4 Your Love Hurts 4:50
5 Restless World 4:11
6 Hopeless Romantic 3:43
7 Soul Survivor 4:08
8 If That's What You Call Lovin' 4:10
9 Domination 3:52

Credits

Notes

Made In USA Digital Audio Disc Corp - stamped on the clear plastic inner ring on CD

Barcode and Other Identifiers

  • Barcode: 0 7464-40128-2
  • Matrix / Runout: DIDP 70062 11A2

Other Versions (5 of 16) View All

Cat# Artist Title (Format) Label Cat# Country Year
BFZ 40128, Z 40128 Robert Tepper No Easy Way Out(LP, Album) Scotti Bros. Records, Scotti Bros. Records BFZ 40128, Z 40128 US 1986 Sell This Version
ELPS 4543, Z 40128 Robert Tepper No Easy Way Out(LP, Album) Epic, Scotti Bros. Records ELPS 4543, Z 40128 Australia 1986 Sell This Version
ZK40128 Robert Tepper No Easy Way Out(CD, Album, RE, RM) Sony Music ZK40128 Europe 2009 Sell This Version
SCT 26763, 26763 Robert Tepper No Easy Way Out(LP, Album) Scotti Bros. Records, Scotti Bros. Records SCT 26763, 26763 Netherlands 1986 Sell This Version
C25Y0191 Robert Tepper No Easy Way Out(LP, Album, Promo) Scotti Bros. Records C25Y0191 Japan 1986 Sell This Version

Recommendations

Reviews

Add Review

ispace

ispace

April 29, 2019
foobar2000 1.3.17 / Dynamic Range Meter 1.1.1
log date: 2019-04-29 20:52:22

--------------------------------------------------------------------------------
Analyzed: Robert Tepper / No Easy Way Out [US 1986 CD]
--------------------------------------------------------------------------------

DR Peak RMS Duration Track
--------------------------------------------------------------------------------
DR15 0.00 dB -17.09 dB 4:23 01-No Easy Way Out
DR12 -3.89 dB -19.85 dB 4:32 02-Angel Of The City
DR14 -0.78 dB -17.87 dB 4:23 03-Don't Walk Away
DR12 -4.26 dB -18.78 dB 4:51 04-Your Love Hurts
DR13 -2.26 dB -18.09 dB 4:13 05-Restless World
DR12 -3.55 dB -17.28 dB 3:46 06-Hopeless Romantic
DR11 -4.21 dB -16.82 dB 4:10 07-Soul Survivor
DR13 -2.42 dB -17.48 dB 4:12 08-If That's What You Call Lovin'
DR12 -1.26 dB -16.11 dB 3:54 09-Domination
--------------------------------------------------------------------------------

Number of tracks: 9
Official DR value: DR12

Samplerate: 44100 Hz
Channels: 2
Bits per sample: 16
Bitrate: 917 kbps
Codec: ALAC
================================================================================