Rodriguez* ‎– At His Best

Genre:
Style:
Year:

Versions (14)

Cat# Artist Title (Format) Label Cat# Country Year
BGM 001 Rodriguez* At His Best(LP, Comp) Blue Goose Music BGM 001 Australia 1977 Sell This Version
TC-BGM-1001 Rodriguez* At His Best(Cass, Album, Comp) Blue Goose Music TC-BGM-1001 Australia 1977 Sell This Version
BGM-1001 Rodriguez* At His Best(LP, Comp) Blue Beat Records & Promotions BGM-1001 Australia 1977 Sell This Version
L 36338 Rodriguez* At His Best(LP, Comp) Interfusion L 36338 New Zealand 1977 Sell This Version
CCRPM 1164 Rodriguez* The Best of Rodriguez(Cass, Comp) RPM CCRPM 1164 South Africa 1982 Sell This Version
RPM 1164 Rodriguez* The Best of Rodriguez(LP, Comp) RPM RPM 1164 South Africa 1982 Sell This Version
VPCD6748 Rodriguez* At His Best(CD, Comp) BMG VPCD6748 Australia 1986 Sell This Version
POWC 6120 Rodriguez* At His Best(Cass, Album, Comp, RE) Powderworks Records & Tapes POWC 6120 Australia 1986 Sell This Version
POW 6120 Sixto Rodriguez At His Best(LP, Album, Comp, RE) Powderworks Records & Tapes POW 6120 Australia 1986 Sell This Version
VPCD6748 Rodriguez* At His Best (CD, Comp, RE, RM) RCA VPCD6748 Australia 1993 Sell This Version
MMTCD 1987 Sixto Rodriguez The Best of Rodriguez(CD, Comp, RE) PolyGram South Africa MMTCD 1987 South Africa 1996 Sell This Version
VPCD6748 Rodriguez* At His Best (CD, Comp, RE, RM) RCA VPCD6748 Australia Unknown Sell This Version
BGMC 001 Rodriguez* At His Best(Cass, Album, Comp) Blue Goose Music BGMC 001 Australia Unknown Sell This Version
BGM 001, MX200409 Rodriguez* At His Best(LP, Comp, RE) Blue Goose Music, Blue Goose Music BGM 001, MX200409 Australia Unknown Sell This Version

Recommendations

Reviews Show All 5 Reviews

Add Review

ispace

ispace

April 9, 2018
referencing At His Best , CD, Comp, RE, RM, VPCD6748
foobar2000 1.3.17 / Dynamic Range Meter 1.1.1
log date: 2018-04-09 21:13:04

--------------------------------------------------------------------------------
Analyzed: Rodriguez / At His Best
--------------------------------------------------------------------------------

DR Peak RMS Duration Track
--------------------------------------------------------------------------------
DR15 0.00 dB -17.44 dB 2:33 01-Crucify Your Mind
DR14 -0.99 dB -18.82 dB 3:50 02-Sugar Man
DR13 -2.00 dB -20.42 dB 6:41 03-Sandrevan Lullaby
DR13 -1.47 dB -19.32 dB 3:26 04-Inner City Blues
DR13 -3.32 dB -19.19 dB 3:59 05-Can't Get Away
DR13 -2.32 dB -18.38 dB 2:33 06-I Wonder
DR12 -4.65 dB -18.73 dB 2:52 07-I'll Slip Away
DR15 -1.55 dB -19.55 dB 3:46 08-Street Boy
DR12 -6.62 dB -21.82 dB 5:28 09-Cause
DR12 -5.54 dB -20.68 dB 2:53 10-Jane S. Piddy
DR13 -4.05 dB -19.43 dB 2:05 11-Establishment Blues
--------------------------------------------------------------------------------

Number of tracks: 11
Official DR value: DR13

Samplerate: 44100 Hz
Channels: 2
Bits per sample: 16
Bitrate: 698 kbps
Codec: ALAC
================================================================================
Audio_dude

Audio_dude

August 10, 2017
referencing At His Best, LP, Comp, BGM 001
Does anyone have this album where Side 2 track 5 has "Jane S Piddy" on label, but song on record is "Like Janis"? Cheers
AshCooper

AshCooper

October 27, 2013
referencing At His Best, LP, Comp, BGM 001

Amazing compilation of unique songs. Good starting point for a Rodriguez collector,