Sergio Mendes* ‎– Sergio Mendes / Magic Lady

Label:
Collectables ‎– COL-CD-7670
Series:
Format:
CD, Compilation
Country:
Released:
Genre:
Style:
 

Tracklist Hide Credits

Sergio Mendes
1 Davy
Composed By – B. Ighner*
4:05
2 I Believe (When I Fall In Love It Will Be Forever)
Composed By – Stevie Wonder
3:40
3 All In Love Is Fair
Composed By – Stevie Wonder
4:26
4 Let Them Work It Out
Composed By – Linda Creed, Thom Bell
3:07
5 Here Comes The Sun
Composed By – George Harrison
3:47
6 If I Ever Lose This Heaven
Composed By – Leon Ware, Pam Sawyer
3:05
7 Lookin' For Another Pure Love
Composed By – Stevie Wonder
3:37
8 Someday We'll All Be Free
Composed By – Don Hathaway*
4:13
9 You Been Away Too Long
Composed By – B. Ighner*
4:09
10 The Trouble With Hello Is Goodbye
Composed By – Alan & Marilyn Bergman, David Grusin*
3:59
Magic Lady
11 I'll Tell You
Composed By – Nate Watts*
5:49
12 Lonely Woman
Composed By – Carmine LauroDrums – Alan Diaz
3:25
13 You Get Your Love From Me
Composed By – Carmine Lauro
3:49
14 Magic Lady
Acoustic Guitar, Arranged By [Strings] – Oscar Neves*Composed By – Gene Lees, Michael Sembello, Sérgio MendesSaxophone [Solo] – Tom Scott
3:55
15 Yes I Love You
Composed By – Craig Bickhardt, Fred DiTomasso, Michael SembelloTrumpet [Solo] – Chuck Findley
3:52
16 A Dream Come True (Can't Hardly Wait)
Composed By – Cliff Coulter*, Ron Beck*Piano – Clifford Coulter
4:31
17 Let It Go
Composed By – Bonnie Amaro, Carol Rogers, David Amaro, Marietta Waters, Nate Watts*, Raymond Pounds, Sebastian Neto*, Sérgio Mendes
6:22
18 Summer Dream
Arranged By [Strings] – Oscar Neves*Composed By – Gene Lees, Michael Sembello, Sérgio MendesSaxophone [Solo] – Tom Scott
3:36

Companies, etc.

Credits

Notes

Tracks 1-10 originally released in 1975 as Elektra 7ES-1027.
Tracks 11-18 originally released in 1979 as Elektra 6E-214.

*Tower Of Power Horn Section appear courtesy of Columbia Records.
**Tom Scott appears courtesy of Columbia Records.

Barcode and Other Identifiers

  • Barcode (Text): 0 90431 76702 3
  • Matrix / Runout: M0S1 X23315 45 COL2 7670-2 01
  • Mastering SID Code: ifpi L902
  • Mould SID Code: IFPI 2U6E

Reviews

Add Review

ispace

ispace

January 11, 2019
foobar2000 1.3.17 / Dynamic Range Meter 1.1.1
log date: 2019-01-12 14:56:17

--------------------------------------------------------------------------------
Analyzed: Sergio Mendes / Sergio Mendes / Magic Lady
--------------------------------------------------------------------------------

DR Peak RMS Duration Track
--------------------------------------------------------------------------------
DR11 0.00 dB -14.15 dB 4:05 01-Davy
DR12 0.00 dB -15.29 dB 3:40 02-I Believe (When I Fall In Love It Will Be Forever)
DR11 0.00 dB -14.72 dB 4:27 03-All In Love Is Fair
DR12 0.00 dB -14.31 dB 3:08 04-Let Them Work It Out
DR12 0.00 dB -15.31 dB 3:47 05-Here Comes The Sun
DR11 0.00 dB -13.66 dB 3:05 06-If I Ever Lose This Heaven
DR12 0.00 dB -14.34 dB 3:38 07-Lookin' For Another Pure Love
DR12 0.00 dB -15.33 dB 4:13 08-Someday We'll All Be Free
DR12 0.00 dB -15.31 dB 4:09 09-You Been Away Too Long
DR12 0.00 dB -15.98 dB 3:59 10-The Trouble With Hello Is Goodbye
DR13 0.00 dB -13.82 dB 5:49 11-I'll Tell You
DR11 0.00 dB -13.17 dB 3:25 12-Lonely Woman
DR11 0.00 dB -13.51 dB 3:50 13-You Get Your Love From Me
DR11 0.00 dB -12.97 dB 3:56 14-Magic Lady
DR10 0.00 dB -12.56 dB 3:53 15-Yes I Love You
DR12 0.00 dB -14.42 dB 4:31 16-A Dream Come True (Can't Hardly Wait)
DR13 0.00 dB -15.28 dB 6:22 17-Let It Go
DR11 0.00 dB -13.51 dB 3:37 18-Summer Dream
--------------------------------------------------------------------------------

Number of tracks: 18
Official DR value: DR12

Samplerate: 44100 Hz
Channels: 2
Bits per sample: 16
Bitrate: 976 kbps
Codec: ALAC
================================================================================