Stephanie Mills ‎– Feel The Fire - The 20th Century Collection

Label:
Hip-O Select ‎– B0015795.02, Mercury ‎– B0015795.02
Format:
2 × CD, Compilation
Country:
Released:
Genre:
Style:

Tracklist Hide Credits

What Cha Gonna Do With My Lovin'?
1-1 What Cha Gonna Do With My Lovin'
Written-By – James Mtume, Reggie Lucas
4:07
1-2 You Can Get Over
Written-By – James Mtume, Reggie Lucas
5:01
1-3 Deeper Inside Your Love
Written-By – James Mtume, Reggie Lucas
4:00
1-4 Feel The Fire
Written-By – Peabo Bryson
5:02
1-5 Put Your Body In It
Written-By – Edward Moore, Howard King
4:08
1-6 Starlight
Written-By – James Mtume, Reggie Lucas
3:39
1-7 You And I
Written-By – James Mtume, Reggie Lucas
4:52
1-8 Don't Stop Dancin'
Written-By – James Mtume, Reggie Lucas
3:33
Sweet Sensation
1-9 Sweet Sensation
Written-By – James Mtume, Reggie Lucas
4:30
1-10 Try My Love
Written-By – Hubert Eaves*, Tawatha Agee
3:53
1-11 I Just Wanna Say
Written-By – James Mtume, Reggie Lucas
6:12
1-12 Wish That You Were Mine
Written-By – James Mtume, Reggie Lucas
4:09
1-13 D-A-N-C-I-N'
Written-By – Edward Moore, Howard King
5:43
1-14 Still Mine
Written-By – James Mtume, Reggie Lucas
5:38
1-15 Never Knew Love Like This Before
Written-By – James Mtume, Reggie Lucas
5:31
1-16 Mixture Of Love
Written-By – Joe Mills, J. Simmons*
4:28
Bonus Track: Non-LP Single
1-17 Better Than Ever (From The Motion Picture "Starting Over")
Written-By – Carole Bayer Sager, Marvin Hamlisch
3:50
Stephanie
2-1 Winner
Written-By – James Mtume, Reggie Lucas
4:52
2-2 Two Hearts
Featuring – Teddy PendergrassWritten-By – James Mtume, Reggie Lucas, Tawatha
4:45
2-3 Don't Stop Doin' What 'Cha Do
Written-By – James Mtume, Reggie Lucas
4:50
2-4 Top Of My List
Written-By – Rodney Brown, Willie Lester
3:47
2-5 I Believe In Love Songs
Written-By – James Mtume, Reggie Lucas
4:16
2-6 Night Games
Written-By – James Mtume, Reggie Lucas
5:50
2-7 My Love's Been Good To You
Written-By – Howard King, Tawatha
4:16
2-8 Magic
Written-By – Jeffery Daniels*, Stephanie Mills
5:11
Bonus Tracks: The 12-Inch Singles
2-9 What Cha Gonna Do With My Lovin' (Extended Version)
Written-By – James Mtume, Reggie Lucas
8:06
2-10 Put Your Body In It (Extended Version)
Written-By – Edward Moore, Howard King
6:05
2-11 You Can Get Over (Extended Version)
Written-By – James Mtume, Reggie Lucas
9:00
2-12 Sweet Sensation (Extended Version)
Written-By – James Mtume, Reggie Lucas
6:29
2-13 Two Hearts (12" Remix)
Featuring – Teddy PendergrassWritten-By – James Mtume, Reggie Lucas, Tawatha
5:59

Companies, etc.

Credits

Notes

℗ © 2011 The Island DEF Jam Music Group.

Contains 3 previously releases albums.
Tracks 1-1 to 1-8 "What Cha Gonna Do… With My Lovin'?" issued as 20th Century T-583 (1979).
Tracks 1-9 to 1-16 "Sweet Sensation" issued as 20th Century TC-2460 (1980).
Tracks 2-1 to 2-8 "Stephanie" issued as 20th Century T-700 (1981).

Barcode and Other Identifiers

  • Barcode (Text): 6 02527 75714 8
  • Barcode (UPC): 602527757148
  • Matrix / Runout (CD 1): DIDX-765844 1
  • Matrix / Runout (CD 2): DIDX-765845 2
  • Mastering SID Code (CD1 & CD2): IFPI L327
  • Mould SID Code (CD1): IFPI 50E8
  • Mould SID Code (CD2): IFPI 507C

Recommendations

Reviews Show All 2 Reviews

Add Review

ispace

ispace

November 28, 2019
Dynamic range varies considerably, from pretty good (11-12) to pretty bad (7-9).

foobar2000 1.4.4 / Dynamic Range Meter 1.1.1
log date: 2019-11-28 21:52:56

--------------------------------------------------------------------------------
Analyzed: Stephanie Mills / Feel The Fire: The 20th Century Collection
--------------------------------------------------------------------------------

DR Peak RMS Duration Track
--------------------------------------------------------------------------------
DR8 0.00 dB -10.81 dB 4:07 01-What Cha Gonna Do With My Lovin'
DR10 0.00 dB -11.16 dB 5:01 02-You Can Get Over
DR9 0.00 dB -11.44 dB 4:00 03-Deeper Inside Your Love
DR10 0.00 dB -12.36 dB 5:02 04-Feel The Fire
DR10 0.00 dB -11.81 dB 4:08 05-Put Your Body In It
DR10 0.00 dB -12.65 dB 3:39 06-Starlight
DR12 0.00 dB -14.92 dB 4:52 07-You And I
DR9 0.00 dB -10.59 dB 3:33 08-Don't Stop Dancin'
DR9 0.00 dB -10.74 dB 4:30 09-Sweet Sensation
DR9 0.00 dB -10.86 dB 3:53 10-Try My Love
DR11 0.00 dB -13.86 dB 6:12 11-I Just Wanna Say
DR10 0.00 dB -12.22 dB 4:09 12-Wish That You Were Mine
DR10 0.00 dB -11.83 dB 5:43 13-D-A-N-C-I-N'
DR9 0.00 dB -12.12 dB 5:38 14-Still Mine
DR11 0.00 dB -12.50 dB 5:31 15-Never Knew Love Like This Before
DR11 0.00 dB -13.73 dB 4:28 16-Mixture Of Love
DR8 0.00 dB -9.73 dB 3:50 17-Better Than Ever (Single Version)
DR10 0.00 dB -11.49 dB 4:52 01-Winner
DR10 0.00 dB -11.61 dB 4:45 02-Two Hearts
DR11 0.00 dB -13.29 dB 4:50 03-Don't Stop Doin' What 'cha Do
DR12 0.00 dB -13.32 dB 3:47 04-Top Of My List
DR8 0.00 dB -10.56 dB 4:16 05-I Believe In Love Songs
DR8 0.00 dB -11.28 dB 5:50 06-Night Games
DR8 0.00 dB -10.41 dB 4:16 07-My Love's Been Good To You
DR9 0.00 dB -12.23 dB 5:11 08-Magic
DR8 0.00 dB -10.14 dB 8:06 09-What Cha Gonna Do With My Lovin' (12" Version)
DR9 0.00 dB -11.03 dB 6:05 10-Put Your Body In It (12" Version)
DR7 0.00 dB -8.59 dB 9:00 11-You Can Get Over (12" Version)
DR10 0.00 dB -11.94 dB 6:29 12-Sweet Sensation (12" Version)
DR9 -0.20 dB -10.55 dB 5:59 13-Two Hearts (12" Remix)
--------------------------------------------------------------------------------

Number of tracks: 30
Official DR value: DR9

Samplerate: 44100 Hz
Channels: 2
Bits per sample: 16
Bitrate: 896 kbps
Codec: ALAC
================================================================================

REENO

REENO

October 17, 2019
edited 3 months ago

Excellent mastering of her 3 LP's, & associated 12" mixes for 20th Century Fox!