Stephen Bishop ‎– Bish

Label:
MCA Records ‎– MVCM-21038, MCA Records ‎– MCD-18379
Series:
Format:
CD, Album, Reissue
Country:
Released:
Genre:
Pop
Style:

Companies, etc.

Credits

Notes

Track 7, "What Love Can Do" Dedicated to Yip Harburg.

© 1992 Ⓟ 1978 MCA Records Inc. U.S.A. Manufactured and distributed by MCA Victor Inc. Japan.

Barcode and Other Identifiers

  • Matrix / Runout: MVCM-21038-1 5W V
  • Barcode: 4988067004765

Other Versions (5 of 29) View All

Cat# Artist Title (Format) Label Cat# Country Year
AA 1082 Stephen Bishop Bish(LP, Album) ABC Records AA 1082 US 1978 Sell This Version
0321/5000 Stephen Bishop Bish(CD, Album, Ltd) Geffen Records 0321/5000 US 2004 Sell This Version
AA 1082 Stephen Bishop Bish(LP, Album, Gat) ABC Records AA 1082 US 1978 Sell This Version
UICY-94709 Stephen Bishop Bish(CD, Album, RE, RM, SHM) Geffen Records UICY-94709 Japan 2010 Sell This Version
AA 1082 H Stephen Bishop Bish(8-Trk, Album) ABC Records AA 1082 H US 1978 Sell This Version

Reviews

Add Review

ispace

ispace

January 4, 2019
foobar2000 1.3.17 / Dynamic Range Meter 1.1.1
log date: 2019-01-05 16:37:36

--------------------------------------------------------------------------------
Analyzed: Stephen Bishop / Bish [JP 1992 CD]
--------------------------------------------------------------------------------

DR Peak RMS Duration Track
--------------------------------------------------------------------------------
DR11 -7.48 dB -22.83 dB 1:40 01-If I Only Had A Brain
DR14 -0.49 dB -19.52 dB 3:58 02-Losing Myself In You
DR13 -0.53 dB -19.33 dB 3:50 03-Looking For The Right One
DR13 -1.86 dB -17.93 dB 3:43 04-Everybody Needs Love
DR14 -12.43 dB -30.97 dB 0:27 05-Guitar Interlude
DR16 -1.13 dB -20.33 dB 5:34 06-A Fool At Heart
DR12 -5.81 dB -21.70 dB 2:53 07-What Love Can Do
DR13 0.00 dB -16.31 dB 4:25 08-Vagabond From Heaven
DR15 -0.96 dB -19.62 dB 3:58 09-Bish's Hideaway
DR14 -3.91 dB -22.86 dB 4:12 10-Only The Heart Within You
DR12 -4.33 dB -23.83 dB 0:54 11-Recognized
DR13 -1.02 dB -18.19 dB 4:24 12-I've Never Known A Nite Like This
DR13 -5.33 dB -24.73 dB 4:33 13-When I Was In Love
--------------------------------------------------------------------------------

Number of tracks: 13
Official DR value: DR13

Samplerate: 44100 Hz
Channels: 2
Bits per sample: 16
Bitrate: 660 kbps
Codec: ALAC
================================================================================