Talking Heads ‎– Talking Heads: 77

Label:
Sire ‎– 6036-2
Format:
CD, Album, Reissue
Country:
Released:
 
Genre:
Style:

Tracklist Hide Credits

1 Uh-Oh, Love Comes To Town 2:49
2 New Feeling 3:09
3 Tentative Decisions 3:08
4 Happy Day 3:55
5 Who Is It? 1:44
6 No Compassion 4:49
7 The Book I Read 4:10
8 Don't Worry About The Government 3:01
9 First Week / Last Week... Carefree 3:21
10 Psycho Killer
Written-By – Chris Frantz, Martina Weymouth*
4:20
11 Pulled Up 4:28

Companies, etc.

Credits

Notes

CD Pre-Mastering by WCI Record Group.
LP originally released in 1977.
Booklet printed in USA, CD made in Japan by Victor.

Barcode and Other Identifiers

  • Barcode (Text): 0 7599-27423-2
  • Barcode (Scanned): 075992742320
  • Matrix / Runout (Variant 1): 6036-2 U 1 E13
  • Matrix / Runout (Variant 2): 6036-2 U-1 E1
  • Rights Society: ASCAP

Other Versions (5 of 100) View All

Cat# Artist Title (Format) Label Cat# Country Year
SR 6036 Talking Heads Talking Heads: 77(LP, Album, Los) Sire SR 6036 US 1977 Sell This Version
WBN 56647 Talking Heads Talking Heads: 77(LP, Album) Sire WBN 56647 Netherlands Unknown Sell This Version
7222 102 Talking Heads Talking Heads: 77(Cass, Album) Sire 7222 102 UK 1977 Sell This Version
SR 6036 Talking Heads Talking Heads: 77(LP, Album, RP, Los) Sire SR 6036 US Unknown Sell This Version
none Talking Heads Talking Heads: 77(11xFile, FLAC, 96k) Warner Bros. Records none USA & Europe 2009

Recommendations

Reviews

Add Review

ispace

ispace

April 15, 2018
foobar2000 1.3.17 / Dynamic Range Meter 1.1.1
log date: 2018-04-15 20:54:57

--------------------------------------------------------------------------------
Analyzed: Talking Heads / Talking Heads: 77
--------------------------------------------------------------------------------

DR Peak RMS Duration Track
--------------------------------------------------------------------------------
DR14 -1.10 dB -17.95 dB 2:50 01-Uh-Oh, Love Comes To Town
DR15 -1.65 dB -19.40 dB 3:09 02-New Feeling
DR15 -0.34 dB -17.85 dB 3:08 03-Tentative Decisions
DR15 -0.83 dB -20.29 dB 3:55 04-Happy Day
DR15 -2.49 dB -19.12 dB 1:44 05-Who Is It?
DR16 -0.68 dB -19.17 dB 4:50 06-No Compassion
DR15 -1.79 dB -19.02 dB 4:10 07-The Book I Read
DR16 -0.28 dB -19.53 dB 3:02 08-Don't Worry About The Government
DR15 -1.27 dB -18.61 dB 3:21 09-First Week / Last Week...Carefree
DR15 -0.60 dB -18.40 dB 4:21 10-Psycho Killer
DR13 -3.97 dB -19.35 dB 4:30 11-Pulled Up
--------------------------------------------------------------------------------

Number of tracks: 11
Official DR value: DR15

Samplerate: 44100 Hz
Channels: 2
Bits per sample: 16
Bitrate: 859 kbps
Codec: ALAC
================================================================================