Tatsuro Yamashita ‎– For You

Genre:
Style:
Year:

Tracklist

Sparkle 4:13
Music Book 5:08
Interlude A Part I 0:23
Morning Glory 3:28
Interlude A Part II 0:25
Futari 5:46
Loveland, Island 4:29
Interlude B Part I 0:16
Love Talkin' (Honey It's You) 5:50
Hey Reporter! 5:33
Interlude B Part II 0:17
Your Eyes 3:14

Versions (12)

Cat# Artist Title (Format) Label Cat# Country Year
RAL-8801 Tatsuro Yamashita For You(LP, Album) Air Records RAL-8801 Japan 1982 Sell This Version
RAT-8801 Tatsuro Yamashita For You(Cass, Album) Air Records RAT-8801 Japan 1982 Sell This Version
RAL-8801 Tatsuro Yamashita For You(LP, Album, Promo) Air Records RAL-8801 Japan 1982 Sell This Version
YKL-027 Tatsuro Yamashita For You(LP, Album, Promo) ゆうせん YKL-027 Japan 1982 Sell This Version
RACD-4 Tatsuro Yamashita For You(CD, Album, RE) Air Records RACD-4 Japan 1984 Sell This Version
RAL-8827 Tatsuro Yamashita For You(LP, Album, Pic) Air Records RAL-8827 Japan 1985 Sell This Version
R32A-1020 Tatsuro Yamashita For You(CD, Album, RE) Air Records R32A-1020 Japan 1986 Sell This Version
BVCR-2504 Tatsuro Yamashita For You(CD, Album, RE, RM) Air Records BVCR-2504 Japan 1990 Sell This Version
BVCR-1033 Tatsuro Yamashita For You(CD, Album, RE) Ariola BVCR-1033 Japan 1997 Sell This Version
BVCK-37011 Tatsuro Yamashita For You(CD, Album, Ltd, Promo, RE, RM, Pap) Air Records BVCK-37011 Japan 1999 Sell This Version
BVCK-37011 Tatsuro Yamashita For You(CD, Album, Ltd, RE, RM, Pap) Air Records BVCK-37011 Japan 1999 Sell This Version
BVCR-17018, 74321-9133-2 Tatsuro Yamashita = 山下達郎* Tatsuro Yamashita = 山下達郎* - For You = フォー・ユー(CD, Album, RE, RM) Air Records, BMG BVCR-17018, 74321-9133-2 Japan 2002 Sell This Version

Recommendations

Reviews Show All 11 Reviews

Add Review

Middanks

Middanks

November 19, 2020
referencing For You, LP, Album, Pic, RAL-8827
Sounds great! Just like the come along picture discs
Ninety47

Ninety47

October 31, 2020
referencing For You, LP, Album, RAL-8801
Wondering when this will get repress, maybe sometime next year?
gantherr

gantherr

October 12, 2020
referencing For You, LP, Album, RAL-8801

I have this vinyl that have Matrix / Runout stamped V 〄Ⓑ RAL-8801A 111 ⁘ L on side A and Matrix / Runout stamped RAL-8801B 111 ⁘
is that because of the aging or any version differences?
ispace

ispace

October 8, 2020
referencing For You = フォー・ユー, CD, Album, RE, RM, BVCR-17018, 74321-9133-2
foobar2000 1.6 / Dynamic Range Meter 1.1.1
log date: 2020-10-09 17:30:50

--------------------------------------------------------------------------------
Analyzed: Tatsuro Yamashita / For You [JP 1982/2002 CD]
--------------------------------------------------------------------------------

DR Peak RMS Duration Track
--------------------------------------------------------------------------------
DR10 0.00 dB -11.46 dB 4:16 01-SPARKLE
DR10 0.00 dB -11.85 dB 5:10 02-MUSIC BOOK
DR7 -3.59 dB -21.29 dB 0:22 03-INTERLUDE A Part 1
DR11 0.00 dB -13.26 dB 3:29 04-MORNING GLORY
DR8 -4.11 dB -21.76 dB 0:25 05-INTERLUDE A Part 2
DR11 0.00 dB -14.01 dB 5:49 06-FUTARI
DR9 0.00 dB -10.72 dB 4:30 07-LOVELAND, ISLAND
DR11 -4.65 dB -27.42 dB 0:15 08-INTERLUDE B Part 1
DR11 0.00 dB -12.47 dB 5:53 09-LOVE TALKIN' (Honey It's You)
DR9 0.00 dB -10.76 dB 5:34 10-HEY REPORTER!
DR12 -2.37 dB -21.19 dB 0:17 11-INTERLUDE B Part 2
DR10 0.00 dB -12.03 dB 3:19 12-YOUR EYES
DR11 0.00 dB -13.01 dB 3:22 13-あまく危険な香り
DR11 0.00 dB -11.91 dB 3:00 14-あまく危険な香り[TV用インスト1-TV Instrumental Version 1-]
DR13 0.00 dB -13.89 dB 1:44 15-あまく危険な香り[TV用インスト2-TV Instrumental Version 2-]
DR10 0.00 dB -12.65 dB 3:54 16-EVERY NIGHT
--------------------------------------------------------------------------------

Number of tracks: 16
Official DR value: DR10

Samplerate: 44100 Hz
Channels: 2
Bits per sample: 16
Bitrate: 726 kbps
Codec: ALAC
================================================================================
BenjaminHotDog

BenjaminHotDog

November 29, 2019
referencing For You, LP, Album, RAL-8801
Wonderful pressing. I love it more with each listen. Dead silent.
dapietri

dapietri

July 28, 2018
referencing For You, LP, Album, RAL-8801

I can't believe how good this record sounds. It's unreal- and cut so loudly too.
masout

masout

August 11, 2017
referencing For You, LP, Album, RAL-8801

I love every track EXCEPT "Hey Reporter!" - total turn-off that doesn't match mood of other tracks at all, shame they put it there...
brainspo0n

brainspo0n

July 17, 2016
referencing For You, LP, Album, RAL-8801
Seems like he put out quite a few good ones. I'm listening to Go Ahead! via youtube now.
vazquezjorge

vazquezjorge

April 27, 2014
referencing For You, LP, Album, RAL-8801
Great album, just heard it today, totally chill, it transmits a good vibe to the listener.
djkowboy420

djkowboy420

September 5, 2013
edited over 7 years ago
referencing For You, LP, Album, RAL-8801

A definite must have modern soul lp.
"Stand Out" track on this project for me hands down is "Love Talkin". Infectious bassline, vocals and that crashing snare!!!
The track has so many layers and keeps the dancefloor sizzling to the finish.
Drop this in your l8ties 105 - 108 bpm set with r&b Loose Ends, MNStar Patrice Rushen and sit back and watch the dancefloor in amazement!