The Cure ‎– Mixed Up

Label:
Fiction Records ‎– R2 570803, Rhino Records (2) ‎– R2 570803, Elektra ‎– R2 570803
Format:
All Media, Compilation, Deluxe Edition, Digipak
CD, Compilation, Reissue, Remastered
CD, Compilation, Remastered
CD, Compilation, Reissue
Country:
Released:
Genre:
Style:

Tracklist

Mixed Up
1-1 Lullaby (Extended Mix - Remastered 2018) 7:43
1-2 Close To Me (Closer Mix - Remastered 2018) 5:44
1-3 Fascination Street (Extended Mix - Remastered 2018) 8:47
1-4 The Walk (Everything Mix - Remastered 2018) 5:27
1-5 Lovesong (Extended Mix - Remastered 2018) 6:19
1-6 A Forest (Tree Mix - Remastered 2018) 6:55
1-7 Pictures Of You (Extended Dub Mix - Remastered 2018) 6:41
1-8 Hot Hot Hot!!! (Extended Mix - Remastered 2018) 7:01
1-9 The Caterpillar (Flicker Mix - Remastered 2018) 5:40
1-10 Inbetween Days (Shiver Mix - Remastered 2018) 6:22
1-11 Never Enough (Big Mix - Remastered 2018) 6:07
Mixed Up Extras 2018 - Remixes 1982 - 1990
2-1 Let's Go To Bed (Extended Mix 1982 - Remastered 2018) 7:45
2-2 Just One Kiss (Extended Mix 1982 - Remastered 2018) 7:16
2-3 Close To Me (Extended Mix 1985 - Remastered 2018) 6:32
2-4 Boys Don't Cry (New Voice Club Mix - Remastered 2018) 5:30
2-5 Why Can't I Be You? (Extended Mix 1987 - Remastered 2018) 8:07
2-6 A Japanese Dream (12" Remix 1987 - Remastered 2018) 5:48
2-7 Pictures Of You (Extended Mix 1990 - Remastered 2018) 8:07
2-8 Let's Go To Bed (Milk Mix 1990 - Remastered 2018) 7:14
2-9 Just Like Heaven (Dizzy Mix 1990 - Remastered 2018) 3:43
2-10 Primary (Red Mix 1990 - Remastered 2018) 7:10
2-11 The Lovecats (TC & Benny Mix 1990 - Remastered 2018) 4:38
Torn Down: Mixed Up Extras 2018
3-1 Three Imaginary Boys (Help Me Mix 2018) 3:24
3-2 M (Attack Mix 2018) 3:10
3-3 The Drowning Man (Bright Birds Mix 2018) 4:30
3-4 A Strange Day (Drowning Waves Mix 2018) 5:07
3-5 Just One Kiss (Remember Mix 2018) 5:00
3-6 Shake Dog Shake (New Blood Mix 2018) 5:13
3-7 A Night Like This (Hello Goodbye Mix 2018) 4:26
3-8 Like Cockatoos (Lonely In The Rain Mix 2018) 3:51
3-9 Plainsong (Edge Of The World Mix 2018) 4:36
3-10 Never Enough (Time To Kill Mix 2018) 3:38
3-11 From The Edge Of The Deep Green Sea (Love In Vain Mix 2018) 6:24
3-12 Want (Time Mix 2018) 4:48
3-13 The Last Day Of Summer (31st August Mix 2018) 5:46
3-14 Cut Here (If Only Mix 2018) 4:29
3-15 Lost (Found Mix 2018) 4:01
3-16 It's Over (Whisper Mix 2018) 4:56

Companies, etc.

Credits

Notes

8-panel digipak.

Sticker:
"The Cure
Mixed Up
3CD Deluxe Edition
Disc 1: The Orignal Album - Remastered
Disc 2: Mixed Up Extras 2018 - Remixes 1982 - 1990
Disc 3: Torn Down: Mixed Up Extras 2018 - 16 new Robert Smith mixes
24 page booklet
Remastered by Robert Smith 2018
R2 570803"

Taken from back cover:
"The Cure's celebrated 1990 remix album remastered with an additional extra CD of 11 vintage remixes and new remix album 'Torn Down'"

Barcode and Other Identifiers

  • Barcode: 6 03497 85847 7
  • Matrix / Runout: (1024466) 3.4.570803.SA.1 01 0001
  • Mastering SID Code: IFPI L247
  • Mould SID Code: IFPI KKBB
  • Matrix / Runout: (1024468) 3.4.570803.SA.2 01 0001
  • Mastering SID Code: IFPI L247
  • Mould SID Code: IFPI KK7Z
  • Matrix / Runout: (1024470) 3.4.570803.SA.3 01 0001
  • Mastering SID Code: IFPI L247
  • Mould SID Code: IFPI KKEP

Other Versions (5 of 110) View All

Cat# Artist Title (Format) Label Cat# Country Year
FIXLP 18, 847 099-1 The Cure Mixed Up(2xLP, Comp) Fiction Records, Fiction Records FIXLP 18, 847 099-1 UK 1990 Sell This Version
DARL3019, 847 099 The Cure Mixed Up(2xLP, Comp) Polydor, Polydor DARL3019, 847 099 Zimbabwe 1991 Sell This Version
60978-2, 9 60978-2 The Cure Mixed Up(CD, Comp, ARC) Elektra, Elektra, Fiction Records, Fiction Records 60978-2, 9 60978-2 US 1990 Sell This Version
420549, CD 420549, 847 099-2, FIXCD 18 The Cure Mixed Up(CD, Comp) PGP RTB, PGP RTB, Fiction Records, Fiction Records 420549, CD 420549, 847 099-2, FIXCD 18 Yugoslavia 1990 Sell This Version
FIXCD 18, 847 099-2 The Cure Mixed Up(CD, Comp, Whi) Fiction Records, Fiction Records FIXCD 18, 847 099-2 UK 1990 Sell This Version

Recommendations

Reviews

Add Review

agt_dale_cooper

agt_dale_cooper

August 24, 2018
Whoever did the CD-TEXT on this release needs to go back to CD-TEXT school.

Excerpt from CD1:
CDTEXTFILE "The Cure - Mixed Up.cdt"
TITLE "Mixed Up"
PERFORMER "The Cure"
CATALOG 0603497858477
FILE "The Cure - Mixed Up.bin" BINARY
TRACK 01 AUDIO
TITLE "Lullaby (Extended Mix) - The Cure"
ISRC GBUM71705692
INDEX 01 00:00:00
TRACK 02 AUDIO
TITLE "Close To Me (Closer Mix) - The Cure"
ISRC GBUM71705693
INDEX 01 07:46:04
TRACK 03 AUDIO
TITLE "Fascination Street (Extended Mix) - The Cure"
ISRC GBUM71705695
INDEX 01 13:31:74

Excerpt from CD2:
CDTEXTFILE "The Cure - Mixed Up.cdt"
TITLE "Mixed Up"
PERFORMER "The Cure"
CATALOG 0603497858477
FILE "The Cure - Mixed Up.bin" BINARY
TRACK 01 AUDIO
TITLE "Let's Go To Bed (Extended Mix 1982) - The Cure"
ISRC GBUM71800348
INDEX 00 00:00:00
INDEX 01 00:01:00
TRACK 02 AUDIO
TITLE "Just One Kiss (Extended Mix 1982) - The Cure"
ISRC GBUM71800349
INDEX 01 07:46:53
TRACK 03 AUDIO
TITLE "Close To Me (Extended Mix 1985) - The Cure"
ISRC GBUM71800350
INDEX 01 15:03:27

Excerpt from CD3:
CDTEXTFILE "The Cure - Mixed Up.cdt"
TITLE "Mixed Up"
PERFORMER "The Cure"
CATALOG 0603497858477
FILE "The Cure - Mixed Up.bin" BINARY
TRACK 01 AUDIO
TITLE "Three Imaginary Boys (Help Me Mix 2018) - The Cure"
ISRC GBUM71705706
INDEX 01 00:00:00
TRACK 02 AUDIO
TITLE "M (Attack Mix 2018) - The Cure"
ISRC GBUM71705718
INDEX 01 03:23:70
TRACK 03 AUDIO
TITLE "The Drowning Man (Bright Birds Mix 2018) - The Cure"
ISRC GBUM71705719
INDEX 01 06:33:36

Seems the Reissue needs to be re-reissued, with TEXT changes I'll suggest as follows:
CD1 TITLE should read
TITLE "Mixed Up (2018 Remaster)"
All track TITLEs should omit text " - The Cure"

Similarly,
CD2 TITLE should read
TITLE "Remixes 1982-1990 - Mixed Up Extras 2018" [to be consistent with Torn Down: Mixed Up Extras 2018 labeling, despite the fact the CD face is worded differently]
All track TITLEs should omit text " - The Cure"

And, similarly,
CD3 TITLE should read
TITLE "Torn Down - Mixed Up Extras 2018" [which is consistent with Torn Down: Mixed Up Extras 2018 labeling, and is the wording on the CD face]
All track TITLEs should omit text " - The Cure"

Overall, very nice release (just like the rest of the Rhino stuff!), but these text errors crap it up something fierce in my car :/

Should be re-re-released, with the addition of the missing tracks noted in the booklet...on a shaped 3", just to be obtuse.
Joseph's or John's [sounds like Joseph, but John was doing the same thing...] "razor" can be thrown in, too, as long as there's some kind of warning :)
[Is there a Digital release, as mentioned in the booklet? If so, does it exhibit these same track titling errors?]