The Manhattan Transfer ‎– Mecca For Moderns

Label:
Atlantic ‎– 16036-2
Format:
CD, Album
Country:
Released:
Genre:
Style:

Companies, etc.

Credits

Notes

Subtitle for track 5 (Smile Again): "Dedicated to Angela from Alan".

Barcode and Other Identifiers

  • Barcode: 075678148224

Other Versions (5 of 36) View All

Reviews

Add Review

ispace

ispace

July 10, 2018
foobar2000 1.3.17 / Dynamic Range Meter 1.1.1
log date: 2018-07-10 21:22:21

--------------------------------------------------------------------------------
Analyzed: The Manhattan Transfer / Mecca For Moderns
--------------------------------------------------------------------------------

DR Peak RMS Duration Track
--------------------------------------------------------------------------------
DR13 -1.56 dB -18.41 dB 4:09 01-On The Boulevard
DR14 -0.77 dB -18.21 dB 3:40 02-Boy From New York City
DR15 -1.60 dB -19.23 dB 3:26 03-(Wanted) Dead Or Alive
DR14 -1.09 dB -18.49 dB 4:04 04-Spies In The Night
DR14 -1.16 dB -20.46 dB 4:34 05-Smile Again
DR14 0.00 dB -18.62 dB 5:18 06-Until I Meet You (Corner Pocket)
DR14 -0.30 dB -17.17 dB 3:15 07-(The Word Of) Confirmation
DR13 -0.19 dB -16.89 dB 4:13 08-Kafka
DR14 -3.33 dB -20.67 dB 3:48 09-A Nightingale Sang In Berkeley Square
--------------------------------------------------------------------------------

Number of tracks: 9
Official DR value: DR14

Samplerate: 44100 Hz
Channels: 2
Bits per sample: 16
Bitrate: 690 kbps
Codec: ALAC
================================================================================