The Moody Blues ‎– A Question Of Balance

Label:
Threshold Records ‎– 820 211-2
Format:
CD, Album, Reissue
Country:
Released:
Genre:
Style:
 

Tracklist Hide Credits

1 Question
Written-By – Hayward*
5:48
2 How Is It (We Are Here)
Written-By – Pinder*
2:45
3 And The Tide Rushes In
Written-By – Thomas*
2:56
4 Don't You Feel Small
Written-By – Edge*
2:37
5 Tortoise And The Hare
Written-By – Lodge*
3:17
6 It's Up To You
Written-By – Hayward*
3:10
7 Minstrel's Song
Written-By – Lodge*
4:27
8 Dawning Is The Day
Written-By – Hayward*
4:21
9 Melancholy Man
Written-By – Pinder*
5:45
10 The Balance
Written-By – Edge*, Thomas*
3:33

Companies, etc.

Credits

Notes

Original Release Date: August 1970.

1, 6, 8: Tyler Music Ltd.
2, 9: Sparta-Florida Music Group
3: Memforest Ltd.
4: Gymhouse Ltd.
5, 7: Johnsongs
10: Gymhouse Ltd./Memforest Ltd.

℗ 1970 The Decca Record Company Limited, London
© 1986 The Decca Record Company Limited, London
THE DECCA RECORD COMPANY LIMITED, London, England
CD is manufactured by PolyGram in Hanover, West Germany
Printed in West Germany/Imprimé en Allemagne. Made in West Germany

Barcode and Other Identifiers

  • Barcode: 0 42282 02112 0
  • Matrix / Runout: 820 211-2 02 *
  • Label Code: LC 0171
  • Other (SPARS code): AAD

Other Versions (5 of 131) View All

Cat# Artist Title (Format) Label Cat# Country Year
THS 3 The Moody Blues A Question Of Balance(LP, Album, Env) Threshold Records THS 3 UK 1970 Sell This Version
THS J 12403 The Moody Blues A Question Of Balance(Reel, Album, Quad) Threshold Records THS J 12403 US 1970 Sell This Version
THS 3 The Moody Blues A Question Of Balance(LP, Album, Gat) Threshold Records THS 3 Australia 1970 Sell This Version
THS 3 The Moody Blues A Question Of Balance(LP, Album, RE, Gat) Threshold Records THS 3 Australasia Unknown Sell This Version
820 211-2 The Moody Blues A Question Of Balance(CD, Album, RE) Threshold Records 820 211-2 UK & Europe 1986 Sell This Version

Recommendations

Reviews

Add Review

klockwerk

klockwerk

September 21, 2016

Review? This is an excellent album, great melodies and singing, a prog/psychedelic must have.

Dynamic range for Threshold Records ‎– 820 211-2 Made in US
foobar2000 1.3.12 / Dynamic Range Meter 1.1.1
log date: 2016-09-21 11:51:07

--------------------------------------------------------------------------------
Analyzed: Moody Blues, The / A Question Of Balance
--------------------------------------------------------------------------------

DR Peak RMS Duration Track
--------------------------------------------------------------------------------
DR12 -1.00 dB -16.19 dB 5:48 01-Question
DR10 -3.19 dB -16.53 dB 2:45 02-How Is It (We Are Here)
DR9 -3.82 dB -17.23 dB 2:57 03-And The Tide Rushes In
DR11 -2.39 dB -17.26 dB 2:38 04-Don't You Feel Small
DR10 -1.29 dB -14.97 dB 3:17 05-Tortoise And The Hare
DR10 -2.95 dB -14.95 dB 3:10 06-It's Up To You
DR10 -2.19 dB -14.88 dB 4:28 07-Minstrel's Song
DR10 -3.54 dB -17.48 dB 4:21 08-Dawning Is The Day
DR9 -2.32 dB -15.91 dB 5:45 09-Melancholy Man
DR9 -3.31 dB -18.56 dB 3:33 10-The Balance
--------------------------------------------------------------------------------

Number of tracks: 10
Official DR value: DR10

Samplerate: 44100 Hz
Channels: 2
Bits per sample: 16
Bitrate: 670 kbps
Codec: FLAC