Various ‎– Essential 70's Modern Soul Dancefloor Classics Volume 1

Label:
Deepbeats ‎– DGPCD 710
Format:
CD, Compilation
Country:
Released:
Genre:
Style:

Tracklist Hide Credits

1 The Carstairs It Really Hurts Me Girl (Original 7" Mix)
Producer – W. Horne*, Ray A. Evans
3:39
2 The Moments Nine Times (Original Promo 12" Mix)
Producer – Ray, Goodman & Brown
4:37
3 Larry Saunders On The Real Side (Original 7" Mix)
Producer – T.Keith*
3:20
4 The Street People* You're My One Weakness Girl (Original 7" Mix)
Arranged By – Bert DecoteauxProducer – Ray Dahroughe*
3:14
5 Marie Green Sorry, That Number's Been Disconnected (Original 7" Mix)
Producer – Patrick Adams
3:14
6 Benny Troy I Wanna Give You Tomorrow (Original 7" Mix)
Producer – Billy Terrell
3:56
7 Rhetta Young You Beat Me To The Punch (Original 7" Mix)
Producer – Goodman*, Ray*, Morris*
5:41
8 The Street People* Never Get Enough Of Your Love (Original 7" Mix)
Arranged By – Bert Decoteaux
4:39
9 LTG Exchange Keep On Trying (Original 7" Mix)
Producer – Jerry Ross
3:32
10 The Moments Sweet Sweet Lady (Original 7" Mix)
Producer – Goodman*, Ray*, Keith*
4:47
11 Universal Mind (3) Reach Out For Me (Original 7" Mix)
Producer – Gene Redd Jnr.*
3:30
12 The Moments I've Got The Need (Original Album Version)
Producer – The Moments
3:30
13 The Rimshots Do What You Feel (Original Promo 12" Mix)
Producer – Goodman*, Ray*, Morris*
4:35
14 Pat Lundi* Party Music (Original 7" Mix)
Producer – Scott*, Ganim*, Mollico*
3:35
15 Universal Mind (3) Something Fishy Is Going On (Original 7" Mix)
Producer – Freddie Vee, Gene Redd Jnr.*
3:25
16 Garfield Fleming Don't Send Me Away (Original 12" Mix)
Producer – David Morris (3), Roger Meltzer
5:21

Credits

Notes

This compilation ℗ 1995 Deep Beats Records.
This compilation © 1995 Deep Beats Records.
Digitally re-mastered at SRT Studios, Cambridge.

Barcode and Other Identifiers

  • Barcode: 5023224071026

Recommendations

Reviews

Add Review

ispace

ispace

July 10, 2018
foobar2000 1.3.17 / Dynamic Range Meter 1.1.1
log date: 2018-07-10 21:18:40

--------------------------------------------------------------------------------
Analyzed: Essential 70's Modern Soul Dancefloor Classics Volume 1
--------------------------------------------------------------------------------

DR Peak RMS Duration Track
--------------------------------------------------------------------------------
DR11 -0.73 dB -13.38 dB 3:31 01-It Really Hurts Me Girl (Original 7" Mix)
DR10 -1.11 dB -13.08 dB 4:36 02-Nine Times (Original Promo 12" Mix)
DR11 -0.73 dB -13.78 dB 3:34 03-On The Real Side (Original 7" Mix)
DR11 -0.34 dB -12.75 dB 3:12 04-You´re My One Weakness Girl (Original 7" Mix)
DR11 -1.08 dB -13.77 dB 3:20 05-Sorry, That Number's Been Disconnected (Original 7" Mix)
DR10 -0.06 dB -11.84 dB 5:14 06-I Wanna Give You Tomorrow (Original 7" Mix)
DR11 -1.03 dB -13.48 dB 3:03 07-You Beat Me To The Punch (Original 7" Mix)
DR10 -0.51 dB -12.56 dB 4:28 08-Never Get Enough Of Your Love (Original 7" Mix)
DR12 -0.86 dB -14.53 dB 4:58 09-Keep On Trying (Original 7" Mix)
DR10 -0.78 dB -12.74 dB 4:40 10-Sweet Sweet Lady (Original 7" Mix)
DR8 -0.61 dB -11.49 dB 5:45 11-Reach Out For Me (Original 7" Mix)
DR12 -0.93 dB -14.64 dB 2:44 12-I've Got The Need (Original Album Version)
DR10 -1.04 dB -12.83 dB 4:29 13-Do What You Feel (Original Promo 12" Mix)
DR10 -0.71 dB -12.88 dB 4:23 14-Party Music (Original 7" Mix)
DR9 -0.46 dB -12.08 dB 4:17 15-Something Fishy Is Going On (Original 7" Mix)
DR11 0.00 dB -12.37 dB 4:59 16-Don´t Send Me Away (Original 12" Mix)
--------------------------------------------------------------------------------

Number of tracks: 16
Official DR value: DR10

Samplerate: 44100 Hz
Channels: 2
Bits per sample: 16
Bitrate: 974 kbps
Codec: ALAC
================================================================================