Various ‎– Metal Gear Solid Original Game Soundtrack

Genre:
Style:
Year:

Tracklist

Tappy Metal Gear Solid Main Theme 2:43
KCE Japan Sound Team Introduction 0:57
KCE Japan Sound Team Discovery 5:05
KCE Japan Sound Team Cavern 3:11
KCE Japan Sound Team Intruder 1 2:04
KCE Japan Sound Team Encounter 2:21
KCE Japan Sound Team Intruder 2 1:57
KCE Japan Sound Team Warhead Storage 3:39
KCE Japan Sound Team Intruder 3 2:55
KCE Japan Sound Team Mantis' Hymn 2:56
KCE Japan Sound Team Hind D 2:00
KCE Japan Sound Team Duel 2:21
KCE Japan Sound Team Enclosure 2:14
KCE Japan Sound Team Blast Furnace 3:00
KCE Japan Sound Team Colosseo 1:54
KCE Japan Sound Team Rex's Lair 3:05
KCE Japan Sound Team Escape 3:11
Rika Muranaka End Title / The Best Is Yet To Come 5:47
KCE Japan Sound Team VR Training 2:37
Tappy Metal Gear Solid Main Theme (1997 E3 Edit) 5:23
Tappy Metal Gear Solid Control Mix 6:53

Versions (11)

Cat# Artist Title (Format) Label Cat# Country Year
KICA7895, LC354 Various Metal Gear Solid Original Game Soundtrack(CD, Album) Konami, Konami KICA7895, LC354 Japan 1998 Sell This Version
GM-040 Various Metal Gear Solid (Original Soundtrack)(CD, Album, Unofficial) Ever Anime International Records GM-040 Taiwan 1997 Sell This Version
KICA7895, LC354 Various Metal Gear Solid Original Game Soundtrack(CD, Album) Konami, Konami KICA7895, LC354 Japan 1998 Sell This Version
KICA7895 Various Metal Gear Solid Original Game Soundtrack(CD) Konami KICA7895 Europe 1999 Sell This Version
MOND-185 Konami Digital Entertainment Metal Gear Solid - Original Video Game Soundtrack(2xLP, Album) Mondo (3) MOND-185 US 2019 Sell This Version
MOND-185 Konami Digital Entertainment Metal Gear Solid - Original Video Game Soundtrack(2xLP, Album, Gre) Mondo (3) MOND-185 US 2019 Sell This Version
MOND-185 Konami Digital Entertainment Metal Gear Solid - Original Video Game Soundtrack(2xLP, Album, Ltd, Gra) Mondo (3) MOND-185 US 2019 Sell This Version
MOON 011 Various Metal Gear Solid(LP, TP, Unofficial, W/Lbl) Moonshake MOON 011 US 2019 Sell This Version
MOON 011 Various Metal Gear Solid(LP, Unofficial) Moonshake MOON 011 US 2019 Sell This Version
MICA-0391 Various Metal Gear Solid Original Game Soundtrack(CD, Album, Unofficial) Miya Records MICA-0391 Taiwan Unknown Sell This Version
A&G-179 Various Metal Gear Solid Original Game Soundtrack(CD, Unofficial) SM Records Ltd. A&G-179 Taiwan Unknown Sell This Version

Recommendations

Reviews Show All 24 Reviews

Add Review

Glennus

Glennus

September 20, 2019
referencing Metal Gear Solid - Original Video Game Soundtrack, 2xLP, Album, Gre, MOND-185
Sounds great!

DR10 -1.89 dB -14.71 dB 2:42 01-Metal Gear Solid Main Theme
DR12 -5.23 dB -20.26 dB 0:57 02-Introduction
DR10 -3.75 dB -15.85 dB 5:05 03-Discovery
DR12 -3.70 dB -17.04 dB 3:11 04-Cavern
DR13 -5.26 dB -21.63 dB 2:05 05-Intruder 1
DR13 -5.61 dB -20.87 dB 2:19 06-Encounter
DR14 -4.81 dB -20.23 dB 1:57 07-Intruder 2
DR12 -4.58 dB -18.25 dB 3:40 08-Warhead Storage
DR12 -4.67 dB -18.47 dB 2:55 09-Intruder 3
DR10 -5.68 dB -18.29 dB 2:56 10-Mantis' Hymn
DR10 -4.70 dB -16.48 dB 2:00 11-Hind D
DR13 -3.65 dB -18.58 dB 2:22 12-Duel
DR10 -4.56 dB -18.07 dB 2:11 13-Enclosure
DR12 -4.61 dB -17.66 dB 3:00 14-Blast Furnace
DR10 -3.76 dB -15.65 dB 1:54 15-Colosseo
DR10 -3.63 dB -15.15 dB 3:05 16-Rex's Lair
DR12 -3.60 dB -16.83 dB 3:11 17-Escape
DR11 -3.54 dB -17.00 dB 5:42 18-End Title / The Best Is Yet To Come
DR11 -2.74 dB -15.11 dB 2:38 19-VR Training
DR10 -3.22 dB -15.15 dB 5:15 20-Metal Gear Solid Main Theme (1997 E3 Edit)
--------------------------------------------------------------------------------

Number of tracks: 20
Official DR value: DR11
NickTaxidermy

NickTaxidermy

September 4, 2019
referencing Metal Gear Solid - Original Video Game Soundtrack, 2xLP, Album, Gre, MOND-185
Sounds gorgeous. Looks incredible. One of the nicest-looking records I own.
midnightrunner

midnightrunner

August 12, 2019
referencing Metal Gear Solid - Original Video Game Soundtrack, 2xLP, Album, Ltd, Gra, MOND-185
I don't know about you, but this limited edition record release made my snake go solid!!
Demuytere

Demuytere

August 4, 2019
referencing Metal Gear Solid - Original Video Game Soundtrack, 2xLP, Album, Ltd, Gra, MOND-185
Released on 17 jul 2019????
never saw this pass on mondotees.com...
dorium_Tres

dorium_Tres

July 28, 2019
referencing Metal Gear Solid - Original Video Game Soundtrack, 2xLP, Album, Ltd, Gra, MOND-185

Flat as can be and nice sounding. A great job by Mondo on these.
Evilmantheone

Evilmantheone

July 27, 2019
referencing Metal Gear Solid - Original Video Game Soundtrack, 2xLP, Album, Ltd, Gra, MOND-185
I'm curious if anyone got the Moonshake Records version of MGS Soundtrack and this one, what is your opinion on this one ?

Moonshake's version is obviously top notch, Mondo always has been so-so overall when it comes to vinyl pressings but I might consider buying the Solid Snake's version when it will come out just to have the official pressing too... Thanks.
midnightrunner

midnightrunner

April 12, 2019
referencing Metal Gear Solid, LP, Unofficial, MOON 011
Finally holding this release in my trembling hands really is making my wanger tingle with excitement.
Spell_Caster

Spell_Caster

April 10, 2019
edited 6 months ago
referencing Metal Gear Solid, LP, Unofficial, MOON 011
Yeah, it sounds incredible. Feels like it's 180g and it sounds better than any digital version I've heard.
The cover is really nice and glossy. Only issue I took with it is that my record itself came dusty, but it's nothing a minute or two of cleaning can't fix.
rib

rib

April 8, 2019
referencing Metal Gear Solid, LP, Unofficial, MOON 011
What a beautiful execution of cover and vinyl.
No mondo edition will ever come even close to the level of this release.