Whitesnake ‎– Slip Of The Tongue

Label:
EMI ‎– CDEMD 1013, EMI ‎– CDP 7 93537 2
Format:
CD, Album
Country:
Released:
Genre:
Style:

Companies, etc.

Credits

Notes

Includes 12 page booklet with lyrics.
Mixed at The Record Plant.
UK catalog# is CDEMD 1013, Main catalog# is CDP 7 93537 2
℗ 1989 The copyright in this sound recording is owned by David Coverdale/Whitesnake Recorded Entertainments Inc. Under exclusive licence to EMI Records Ltd.
© 1989 EMI Records Ltd.
Made in Austria by DADC-Austria.

Adrian Vandenberg is credited as Guitar, with the note 'Unfortunately due to injury, Adrian was unable to perform on this recorded work. Our thanks to Steve for fulfilling all guitar responsibilities'.

Barcode and Other Identifiers

  • Barcode (String): 0 077779 353729
  • Barcode (Scanned): 077779353729
  • Matrix / Runout (Variant 1): CDP-7935372 12 MASTERED BY DADC AUSTRIA
  • Matrix / Runout (Variant 2): CDP-7935372 12 B10 MASTERED BY DADC AUSTRIA
  • Matrix / Runout (Variant 3): CDP-7935372 12 A2 MASTERED BY DADC AUSTRIA
  • Matrix / Runout (Variant 4): CDP-7935372 12 B1 MASTERED BY DADC AUSTRIA
  • Rights Society: BIEM / MCPS
  • Label Code: LC 0542

Other Versions (5 of 89) View All

Cat# Artist Title (Format) Label Cat# Country Year
GHS 24249 Whitesnake Slip Of The Tongue(LP, Album) Geffen Records GHS 24249 US 1989 Sell This Version
EMD DJ 1013 Whitesnake Slip Of The Tongue The Wagging Tongue Edition(LP, Album, Promo) EMI EMD DJ 1013 UK 1989 Sell This Version
LP-7-1 2 02444 5, EMD 1013 Whitesnake Slip Of The Tongue(LP, Album) Jugoton, EMI LP-7-1 2 02444 5, EMD 1013 Yugoslavia 1989 Sell This Version
64 7935374 Whitesnake Slip Of The Tongue(Cass, Album, Dol) EMI 64 7935374 Italy 1989 Sell This Version
M5G 24249 Whitesnake Slip Of The Tongue(Cass, Album) Geffen Records M5G 24249 US 1989 Sell This Version

Recommendations

Reviews

Add Review

fmario

fmario

August 26, 2018

foobar2000 1.4 / Dynamic Range Meter 1.1.1
log date: 2018-08-26 19:00:25

--------------------------------------------------------------------------------
Analyzed: Whitesnake / Slip of the Tongue
--------------------------------------------------------------------------------

DR Peak RMS Duration Track
--------------------------------------------------------------------------------
DR13 -0.31 dB -15.22 dB 5:22 01-Slip of the Tongue
DR13 -0.66 dB -16.10 dB 3:29 02-Cheap an' Nasty
DR12 -0.62 dB -14.80 dB 4:11 03-Fool for Your Loving
DR13 -0.74 dB -15.47 dB 4:12 04-Now You're Gone
DR13 -0.54 dB -15.10 dB 5:02 05-Kittens Got Claws
DR13 -0.48 dB -14.71 dB 5:02 06-Wings of the Storm
DR12 -0.78 dB -14.50 dB 4:23 07-The Deeper the Love
DR13 -0.82 dB -15.62 dB 5:16 08-Judgement Day
DR13 -0.54 dB -15.36 dB 4:00 09-Slow Poke Music
DR12 -1.51 dB -16.73 dB 6:03 10-Sailing Ships
--------------------------------------------------------------------------------

Number of tracks: 10
Official DR value: DR13

Samplerate: 44100 Hz
Channels: 2
Bits per sample: 16
Bitrate: 831 kbps
Codec: FLAC
================================================================================