Within Temptation ‎– The Unforgiving

Label:
Sony Music ‎– MOVLP1930
Format:
2 × Vinyl, LP, Album, Limited Edition, Numbered, Reissue, Expanded Edition, Gold & Red marbled vinyl
Country:
Released:
Genre:
Style:

Tracklist Hide Credits

A1 Why Not Me
Lyrics By – Robert Westerholt, Sharon den AdelMusic By – Robert Westerholt, Sharon den AdelVoice – Dawn Mastin
A2 Shot In The Dark
Lyrics By – Daniel Gibson, Robert Westerholt, Sharon den AdelMusic By – Daniel Gibson, Robert Westerholt, Sharon den Adel
A3 In The Middle Of The Night
Lyrics By – Daniel Gibson, Robert Westerholt, Sharon den AdelMusic By – Daniel Gibson, Robert Westerholt, Sharon den Adel
A4 Faster
Lyrics By – Daniel Gibson, Robert Westerholt, Sharon den AdelMusic By – Daniel Gibson, Robert Westerholt, Sharon den Adel
B1 Fire And Ice
Lyrics By – Robert Westerholt, Sharon den AdelMusic By – Martijn Spierenburg, Sharon den Adel
B2 Iron
Lyrics By – Robert Westerholt, Sharon den AdelMusic By – Daniel Gibson, Robert WesterholtVoice – Dawn Mastin
B3 Where Is The Edge
Lyrics By – Daniel Gibson, Robert Westerholt, Sharon den AdelMusic By – Daniel Gibson, Robert Westerholt, Sharon den Adel
B4 Sinéad
Lyrics By – Daniel Gibson, Martijn Spierenburg, Robert Westerholt, Sharon den AdelMusic By – Daniel Gibson, Martijn Spierenburg, Robert Westerholt, Sharon den Adel
C1 Lost
Lyrics By – Daniel Gibson, Robert Westerholt, Sharon den AdelMusic By – Daniel Gibson, Robert Westerholt, Sharon den Adel
C2 Murder
Lyrics By – Daniel Gibson, Robert Westerholt, Sharon den AdelMusic By – Daniel Gibson, Robert Westerholt, Sharon den Adel
C3 A Demon's Fate
Lyrics By – Robert Westerholt, Sharon den AdelMusic By – Daniel Gibson, Sharon den Adel
C4 Stairway To The Skies
Lyrics By – Robert Westerholt, Sharon den AdelMusic By – Martijn Spierenburg, Sharon den Adel
(BONUSTRACKS)
D1 I Don't Wanna
D2 Empty Eyes
D3 The Last Dance

Companies, etc.

Notes

Gatefold sleeve.

On sticker on the front:
- Exclusive 12-page comic book with lyrics
- Exclusive print
- Bonustracks "I Don't Wanna", "Empty Eyes" and "The Last Dance"
- Singles "Faster", "Sinéad" and "Shot in the Dark"
- Limited edition of 5000 copies on gold & red marbled vinyl

www.musiconvinyl.com

Barcode and Other Identifiers

  • Barcode: 8 719262 004290

Other Versions (5 of 40) View All

Cat# Artist Title (Format) Label Cat# Country Year
88697856631 Within Temptation The Unforgiving(2xLP, Album) Sony Music, Dragnet, Columbia 88697856631 Europe 2011 Sell This Version
none Within Temptation The Unforgiving(DVDr, Promo) Not On Label none UK 2011 Sell This Version
WPCR-15973 Within Temptation The Unforgiving(CD, Album, Ltd, RE) Roadrunner Records WPCR-15973 Japan 2014 Sell This Version
1686-179175 Within Temptation The Unforgiving(CD, Album, Unofficial) Roadrunner Records (6) 1686-179175 Russia 2011 Sell This Version
88697833582 Within Temptation The Unforgiving(CD, Album, Promo, Wat) Sony Music, Dragnet, Columbia 88697833582 Germany 2011 Sell This Version

Recommendations

Reviews Show All 2 Reviews

Add Review

mcmetal5

mcmetal5

February 10, 2020
My copy came with two equal vinyls (the second vinyl specifically). I have returned it. Anyway, if mine has two repeated vinyls, I'm sure it will happen to someone else. Amazing that this happens.
Glennus

Glennus

November 28, 2019
Just like the other MOV releases, this sounds great!

DR10 -5.41 dB -20.31 dB 0:33 01-Why Not Me?
DR11 -0.76 dB -13.12 dB 5:01 02-Shot In The Dark
DR11 -0.47 dB -12.84 dB 5:09 03-In The Middle Of The Night
DR10 -0.84 dB -12.75 dB 4:22 04-Faster
DR10 -1.41 dB -15.63 dB 3:56 05-Fire And Ice
DR10 -0.08 dB -12.23 dB 5:39 06-Iron
DR10 -1.12 dB -13.44 dB 3:56 07-Where Is The Edge?
DR10 -0.98 dB -13.64 dB 4:22 08-Sinéad
DR10 -1.91 dB -14.00 dB 5:11 09-Lost
DR10 -1.66 dB -13.28 dB 4:14 10-Murder
DR10 -1.79 dB -12.97 dB 5:28 11-A Demon's Fate
DR10 -1.68 dB -13.67 dB 5:27 12-Stairway To The Skies
DR11 -0.29 dB -13.20 dB 5:03 13-I Don't Wanna
DR10 -1.97 dB -13.71 dB 3:41 14-Empty Eyes
DR12 -1.86 dB -17.26 dB 4:38 15-The Last Dance