Hiroshi Sato Featuring Wendy Matthews ‎– Awakening

Genre:
Stil:
Jahr:

Trackliste

Awakening (覚醒) 2:29
You're My Baby 3:45
Blue And Moody Music 4:32
Only A Love Affair 4:47
Love And Peace 4:23
From Me To You 3:47
I Can't Wait 4:14
It Isn't Easy 4:17
Awakening 3:36
Say Goodbye 3:23

Versionen (10)

Kat.-Nr. Künstler Titel (Format) Label Kat.-Nr. Land Jahr
ALR-28036 Hiroshi Sato Featuring Wendy Matthews Hiroshi Sato Featuring Wendy Matthews - Awakening(LP, Album) Alfa ALR-28036 Japan 1982 Diese Version verkaufen
ALC-28035 Hiroshi Sato Featuring Wendy Matthews Hiroshi Sato Featuring Wendy Matthews - Awakening(Cass, Album) Alfa ALC-28035 Japan 1982 Diese Version verkaufen
ALR-28036 Hiroshi Sato Featuring Wendy Matthews Hiroshi Sato Featuring Wendy Matthews - Awakening(LP, Album, Promo) Alfa ALR-28036 Japan 1982 Diese Version verkaufen
ALR-28036 Hiroshi Sato Featuring Wendy Matthews Hiroshi Sato Featuring Wendy Matthews - Awakening(LP, Album, RP) Alfa ALR-28036 Japan 1983 Diese Version verkaufen
32XA-91 Hiroshi Sato Featuring Wendy Matthews Hiroshi Sato Featuring Wendy Matthews - Awakening(CD, Album, RE) Alfa 32XA-91 Japan 1986 Diese Version verkaufen
ALCA-9144 Hiroshi Sato Featuring Wendy Matthews Hiroshi Sato Featuring Wendy Matthews - Awakening(CD, Album, RE, RM) Alfa ALCA-9144 Japan 1995 Diese Version verkaufen
MHCL 648 Hiroshi Sato Featuring Wendy Matthews Hiroshi Sato Featuring Wendy Matthews - Awakening(CD, Album, RE, RM) SMDR GT Music MHCL 648 Japan 2005 Diese Version verkaufen
MHCL 30275~6 Hiroshi Sato Featuring Wendy Matthews Hiroshi Sato Featuring Wendy Matthews - Awakening(2xCD, Album, RE, RM, S/Edition, BSC) GT Music MHCL 30275~6 Japan 2014 Diese Version verkaufen
MHJ7 3 Hiroshi Sato Featuring Wendy Matthews Hiroshi Sato Featuring Wendy Matthews - Awakening(LP, Album, Ltd, RE, RM) Alfa, Great Tracks (2) MHJ7 3 Japan 2016 Diese Version verkaufen
MHJL 106 Hiroshi Sato Featuring Wendy Matthews Hiroshi Sato Featuring Wendy Matthews - Awakening(LP, Album, Ltd, RE, RM, Cle) Alfa, Great Tracks (2) MHJL 106 Japan 2019 Diese Version verkaufen

Empfehlungen

Rezensionen Alle 34 Rezensionen anzeigen

Rezension hinzufügen

oshan

oshan

10. August 2021
bezogen auf Awakening, LP, Album, Ltd, RE, RM, Cle, MHJL 106
Amazing pressing! Couldn't be happier. Sounds brilliant. I can't speak for for the 2016 pressing, but this one is phenomenal.
MikeMcGantic

MikeMcGantic

17. August 2020
bezogen auf Awakening, 2xCD, Album, RE, RM, S/Edition, BSC, MHCL 30275~6

IMO this is the best version. Second CD includes all instrumental versions, which sound much more contemporary than the vocal versions.
Superjazzz

Superjazzz

27. Juli 2020
bezogen auf Awakening, Cass, Album, ALC-28035
If you have this, PM me--I will gladly buy it.
lazylistener

lazylistener

1. Februar 2020
bezogen auf Awakening, LP, Album, Ltd, RE, RM, Cle, MHJL 106
Disclosure: never had a problem with my copy of the 2016 reissue, but it's amazing how I didn't need to clean this one and it sounds *flawless*.
papitas

papitas

24. Januar 2020
bezogen auf Awakening, LP, Album, Ltd, RE, RM, Cle, MHJL 106

I don't know what the original sounds like but this reissue sounds absolutely amazing! This is definitely the one to get.
BenjaminHotDog

BenjaminHotDog

7. Januar 2020
bezogen auf Awakening, LP, Album, Ltd, RE, RM, Cle, MHJL 106
I ordered two pressing of this record a few months ago. Very happy with the quality of the pressing. Dead silent. As well the mixing for the record is amazingly spacious.
dapietri

dapietri

11. November 2019
bezogen auf Awakening, LP, Album, Ltd, RE, RM, Cle, MHJL 106

This Japanese pressing from Sony seems to have none of the quality issues of the Rainbo pressing, but uses the excellent BG plates. Great sound quality, dynamic and dead silent with no surface noise.
devilsegami

devilsegami

11. Februar 2019
bezogen auf Awakening, LP, Album, ALR-28036
This is getting another reissue in March, but can anyone tell me why it's suddenly $60?? What in the world caused this record to go up $20 bucks from the last reissue? It's getting out of hand.
ispace

ispace

31. Oktober 2018
bezogen auf Awakening, CD, Album, RE, 32XA-91
foobar2000 1.3.17 / Dynamic Range Meter 1.1.1
log date: 2018-10-31 18:45:11

--------------------------------------------------------------------------------
Analyzed: Hiroshi Sato featuring Wendy Matthews / Awakening [JP 1986 CD]
--------------------------------------------------------------------------------

DR Peak RMS Duration Track
--------------------------------------------------------------------------------
DR12 -8.36 dB -26.83 dB 2:34 01-Awakening (覚醒)
DR15 -0.82 dB -18.23 dB 3:52 02-You're My Baby
DR15 0.00 dB -17.99 dB 4:39 03-Blue And Moody Music
DR15 -0.49 dB -17.84 dB 4:56 04-Only A Love Affair
DR17 0.00 dB -18.80 dB 4:39 05-Love And Peace
DR17 0.00 dB -19.10 dB 3:52 06-From Me To You
DR15 0.00 dB -18.25 dB 4:19 07-I Can't Wait
DR14 -0.54 dB -17.88 dB 4:23 08-It Isn't Easy
DR16 0.00 dB -18.74 dB 3:43 09-Awakening
DR16 0.00 dB -17.56 dB 3:28 10-Say Goodbye
DR15 -0.96 dB -18.14 dB 4:45 11-Blue And Moody Music (Wendy's Version)
--------------------------------------------------------------------------------

Number of tracks: 11
Official DR value: DR15

Samplerate: 44100 Hz
Channels: 2
Bits per sample: 16
Bitrate: 790 kbps
Codec: ALAC
================================================================================
goldencalves

goldencalves

1. September 2018
bezogen auf Awakening, LP, Album, Ltd, RE, RM, MHJ7 3
Is this record standard weight or 180 gram?

Light in the attic is pre-selling a 180 gm version of this here:
https://lightintheattic.net/releases/4378-awakening

If it’s a new pressing at Sony’s new plant it may be a better reissue than this Rainbo press.