Joe Sample Featuring Lalah Hathaway ‎– The Song Lives On

Género:
Estilo:
Año:

Versiones (3)

Recomendaciones

Críticas

Añadir reseña

vouvounix

vouvounix

24 de junio de 2018
comentando The Song Lives On, CD, Album, PRA-60701-2

foobar2000 1.2 / Dynamic Range Meter 1.1.1
log date: 2018-06-23 18:18:03

––––––––––––––––––––––––––––––––––––––––
Analyzed: Joe Sample & Lalah Hathaway / The Song Lives On
––––––––––––––––––––––––––––––––––––––––

DR Peak RMS Duration Track
––––––––––––––––––––––––––––––––––––––––
DR12 0.00 dB -13.93 dB 5:09 01-The Song Lives On
DR11 0.00 dB -13.45 dB 5:40 02-Fever
DR12 0.00 dB -15.15 dB 5:12 03-Come Along With Me
DR13 0.00 dB -16.37 dB 4:46 04-Living In Blue
DR12 0.00 dB -14.08 dB 5:49 05-Street Life
DR11 0.00 dB -14.09 dB 5:43 06-When You Life Was Low
DR11 0.00 dB -13.65 dB 5:40 07-One Day I'll Fly Away
DR13 0.00 dB -16.37 dB 4:29 08-When The World Turns Blue
DR11 0.00 dB -14.53 dB 5:13 09-For All We Know
DR13 0.00 dB -14.77 dB 3:59 10-Bitter Sweet
DR13 0.00 dB -15.62 dB 4:58 11-A Long Way From Home
––––––––––––––––––––––––––––––––––––––––

Number of tracks: 11
Official DR value: DR12

Samplerate: 44100 Hz
Channels: 2
Bits per sample: 16
Bitrate: 656 kbps
Codec: FLAC
================================================================================