Ambrosia (2) ‎– Road Island

Genre:
Style:
Année:

Versions (18)

Cat n° Artiste Titre (Format) Label Cat n° Pays Année
BSK 3638 Ambrosia (2) Road Island(LP, Album, Jac) Warner Bros. Records BSK 3638 US 1982 Vendre cette version
WB M5 3638, M5 3638 Ambrosia (2) Road Island(Cass, Album) Warner Bros. Records, Warner Bros. Records WB M5 3638, M5 3638 US 1982 Vendre cette version
WARNER-2960 Ambrosia (2) Road Island(LP, Album) Warner Bros. Records WARNER-2960 Venezuela 1982 Vendre cette version
WB K 56968, WB 56 968 Ambrosia (2) Road Island(LP, Album) Warner Bros. Records, Warner Bros. Records WB K 56968, WB 56 968 Germany 1982 Vendre cette version
XBS 3638 Ambrosia (2) Road Island(LP, Album) Warner Bros. Records XBS 3638 Canada 1982 Vendre cette version
P-11095 Ambrosia (2) Road Island(LP, Album) Warner Bros. Records P-11095 Japan 1982 Vendre cette version
WB 56 968 Ambrosia (2) Road Island(LP, Album) Warner Bros. Records WB 56 968 Italy 1982 Vendre cette version
LWB 6116 Ambrosia (2) Road Island(LP, Album) Warner Bros. Records LWB 6116 Mexico 1982 Vendre cette version
WB K 56 968, WB 56 968, BSK 3638 Ambrosia (2) Road Island(LP, Album) Warner Bros. Records, Warner Bros. Records, Warner Bros. Records WB K 56 968, WB 56 968, BSK 3638 Scandinavia 1982 Vendre cette version
BSK 3638 Ambrosia (2) Road Island(LP, Album) Warner Bros. Records BSK 3638 US 1982 Vendre cette version
WB K 56 968, WB 56 968 Ambrosia (2) Road Island(LP, Album) Warner Bros. Records, Warner Bros. Records WB K 56 968, WB 56 968 Netherlands 1982 Vendre cette version
K 56968 Ambrosia (2) Road Island(LP, Album) Warner Bros. Records K 56968 UK 1982 Vendre cette version
P-11095 Ambrosia (2) Road Island(LP, Album, Promo) Warner Bros. Records P-11095 Japan 1982 Vendre cette version
WPCR-10508 Ambrosia (2) Road Island(CD, Album, RE) Warner Bros. Records WPCR-10508 Japan 1999 Vendre cette version
WOU 3638 Ambrosia (2) Road Island(CD, Album, RE) Wounded Bird Records WOU 3638 US 2005 Vendre cette version
WB3638 Ambrosia (2) Road Island(LP, Album, RE) Warner Bros. Records WB3638 US 2013 Vendre cette version
CANDY240 Ambrosia (2) Road Island(CD, Album, RE, RM) Rock Candy CANDY240 UK 2014 Vendre cette version
BSK 3638 Ambrosia (2) Road Island(LP, Album, TP) Warner Bros. Records BSK 3638 Unknown Vendre cette version

Recommendations

Avis

Ajouter un Avis

ispace

ispace

10 janvier 2019
référencement Road Island, CD, Album, RE, WPCR-10508
foobar2000 1.3.17 / Dynamic Range Meter 1.1.1
log date: 2019-01-10 20:57:27

--------------------------------------------------------------------------------
Analyzed: Ambrosia / Road Island [JP 1999 CD]
--------------------------------------------------------------------------------

DR Peak RMS Duration Track
--------------------------------------------------------------------------------
DR9 -0.07 dB -11.60 dB 5:35 01-For Openers (Welcome Home)
DR7 -0.07 dB -8.47 dB 3:59 02-Still Not Satisfied
DR7 -0.07 dB -8.30 dB 2:59 03-Kid No More
DR8 -0.07 dB -10.69 dB 5:49 04-Feelin' Alive Again
DR8 -0.07 dB -9.46 dB 4:05 05-How Can You Love Me
DR9 -0.07 dB -11.24 dB 4:35 06-Fool Like Me
DR8 -0.07 dB -10.98 dB 7:08 07-Ice Age
DR9 -0.07 dB -12.41 dB 5:13 08-Endings
--------------------------------------------------------------------------------

Number of tracks: 8
Official DR value: DR8

Samplerate: 44100 Hz
Channels: 2
Bits per sample: 16
Bitrate: 842 kbps
Codec: ALAC
================================================================================