Publicité

Sonata ArcticaThe Days Of Grays

Tracklist

Everything Fades To Gray (Instrumental)3:07
Deathaura7:59
The Last Amazing Grays5:40
Flag In The Ground4:09
Breathing3:55
Zeroes4:24
The Dead Skin6:15
Juliet5:59
No Dream Can Heal A Broken Heart4:33
As If The World Wasn't Ending3:49
The Truth Is Out There5:04
Everything Fades To Gray (Full Version)4:47
In The Dark (Bonus Track)
The Last Amazing Grays (Orchestral Version)
Flag In The Ground (Orchestral Version)
Juliet (Orchestral Version)
As If The World Wasn't Ending (Orchestral Version)
The Truth Is Out There (Orchestral Version)

Crédits (1)

  • Heino Leja
    HL*
    Lacquer Cut By

Versions

Filtrer par
    23 versions
    Image, Dans votre Collection, Liste de souhaits ou inventaire
    Détails de la versionQualité des informations
    Pochette de The Days Of Grays, 2009-09-21, VinylThe Days Of Grays
    2×LP, Album, Limited Edition, Numbered
    Nuclear Blast – NB 2379-1, Nuclear Blast – 27361 23791Germany2009Germany2009
    Édités récemment
    Pochette de The Days Of Grays, 2009-09-21, CDThe Days Of Grays
    CD, Album; CD; All Media, Limited Edition
    Digibook
    Nuclear Blast – NB 2379-0, Nuclear Blast – 27361 23790Germany2009Germany2009
    Édités récemment
    Pochette de The Days Of Grays, 2009-10-13, CDThe Days Of Grays
    CD, Album, Promo
    Nuclear Blast – NB 2379-2, Platinum (5) – NB 2379-2Thailand2009Thailand2009
    Édités récemment
    Pochette de The Days Of Grays, 2009, CDThe Days Of Grays
    CD, Album
    Nuclear Blast – NB 2379-2, Nuclear Blast – 2379-2US2009US2009
    Édités récemment
    Pochette de The Days Of Grays, 2009, CDThe Days Of Grays
    CD, Album
    Irond – IROND CD 09-1634Russia2009Russia2009
    Édités récemment
    Pochette de The Days Of Grays, 2009, CDThe Days Of Grays
    CD, Album
    Nuclear Blast – NB 2379-2, Nuclear Blast – 27361 23792Germany2009Germany2009
    Pochette de The Days Of Grays, 2009, CDThe Days Of Grays
    CD, Album
    Nuclear Blast – NB 2379-2, Platinum (5) – NB 2379-2Thailand2009Thailand2009
    Pochette de The Days Of Grays, 2009, CDThe Days Of Grays
    CD, Album; CD; All Media, Unofficial Release
    Nuclear Blast (2) – NB 2379-2, Nuclear Blast (2) – 27361 23792Russia2009Russia2009
    Nouvelle proposition
    Pochette de The Days Of Grays, 2009, CDThe Days Of Grays
    CD, Album; CD; All Media, Limited Edition, Promo
    Avalon – MICP-90045Japan2009Japan2009
    Nouvelle proposition
    Pochette de The Days Of Grays, 2009, CDThe Days Of Grays
    CD, Album
    Icarus Music – ICARUS 568Argentina2009Argentina2009
    Édités récemment
    Pochette de The Days Of Grays, 2009-09-16, CDThe Days Of Grays
    CD, Album
    Avalon – MICP-10860Japan2009Japan2009
    Nouvelle proposition
    Pochette de The Days Of Grays, 2009-09-21, Box SetThe Days Of Grays
    Box Set, Limited Edition, Numbered; CD, Album; CD; All Media, Limited Edition
    Digibook
    Nuclear Blast – NB 2379-5, Nuclear Blast – 27361 23790Germany2009Germany2009
    Nouvelle proposition
    Pochette de The Days Of Grays, 2009-09-16, CDThe Days Of Grays
    CD, Album; CD; All Media, Limited Edition
    Fat Jewel Case
    Avalon – MICP-90045Japan2009Japan2009
    Nouvelle proposition
    Pochette de The Days Of Grays, 2009-10-00, CDThe Days Of Grays
    CD, Album; CD; All Media, Limited Edition
    Evolution Music (2) – EMCD 0113, Avalon – EMCD 0113South Korea2009South Korea2009
    Nouvelle proposition
    Pochette de The Days Of Grays, 2009, CDThe Days Of Grays
    CD, Album
    Laser Company Records – NBR 0157, Rock Brigade Records – NBR 0157Brazil2009Brazil2009
    Nouvelle proposition
    Pochette de The Days Of Grays, 2009, CDThe Days Of Grays
    CD, Album, Numbered, Promo
    Watermarked
    Nuclear Blast – noneUK & Europe2009UK & Europe2009
    Nouvelle proposition
    Pochette de The Days Of Grays, 2009, CDThe Days Of Grays
    CD, Album
    Nuclear Blast – SR0490Mexico2009Mexico2009
    Édités récemment
    Pochette de The Days Of Grays, 2009, CDThe Days Of Grays
    CD, Album; CD; All Media
    Digipak
    Nuclear Blast – NB 2379-0, Nuclear Blast – 27361 23790Mexico2009Mexico2009
    Nouvelle proposition
    Pochette de The Days Of Grays, 2009-09-16, CDThe Days Of Grays
    CD, Album, Promo
    Avalon – MICP-10860Japan2009Japan2009
    Nouvelle proposition
    Pochette de The Days Of Grays, 2019-04-19, VinylThe Days Of Grays
    2×LP, Album, Reissue
    Grey w/ White & Black Splatter
    Back On Black – BOBV604LPLTDEurope2019Europe2019
    Nouvelle proposition
    Pochette de The Days Of Grays, 2019, VinylThe Days Of Grays
    2×LP, Album, Reissue, Test Pressing, White Label
    Back On Black – BOBV604LPLTDEurope2019Europe2019
    Nouvelle proposition
    Pochette de The Days Of Grays, 2021-07-23, VinylThe Days Of Grays
    2×LP, Album, Limited Edition, Repress
    BiCol: Orange/Blue
    Nuclear Blast – NB 2379-1, Nuclear Blast – 27361 23791Germany2021Germany2021
    Nouvelle proposition
    Pochette de The Days Of Grays, 2021-07-23, VinylThe Days Of Grays
    2×LP, Album, Limited Edition, Reissue
    180 gram
    Nuclear Blast – NB 2379-1, Nuclear Blast – 27361 23791Germany2021Germany2021
    Nouvelle proposition

    Avis

    • Avatar de Glennus
      Glennus
      I really love this album, but I dislike the label who pressed it. Despite that, this release is alright. There's some surface noise, the records look alright and there's a good amount of bonus tracks.

      DR12 -6.11 dB -20.06 dB 3:06 01-Everything Fades To Gray
      DR10 -0.98 dB -12.83 dB 7:56 02-Deathaura
      DR9 -0.80 dB -11.88 dB 5:38 03-The Last Amazing Grays
      DR9 -0.72 dB -10.82 dB 4:06 04-Flag In The Ground
      DR10 -0.39 dB -12.63 dB 3:55 05-Breathing
      DR10 -0.01 dB -11.58 dB 4:23 06-Zeroes
      DR10 -0.72 dB -12.31 dB 6:14 07-The Dead Skin
      DR10 -0.15 dB -11.37 dB 5:57 08-Juliet
      DR9 -0.09 dB -11.22 dB 4:30 09-No Dream Can Heal A Broken Heart
      DR10 -0.38 dB -12.69 dB 3:49 10-As If The World Wasn't Ending
      DR10 -1.14 dB -12.40 dB 5:01 11-The Truth Is Out There
      DR9 -2.02 dB -15.87 dB 4:26 12-Everything Fades To Gray (Full Version)
      DR11 -0.77 dB -13.20 dB 5:19 13-In The Dark
      DR11 -0.02 dB -15.64 dB 5:06 14-The Last Amazing Grays (Orchestral Version)
      DR11 -0.03 dB -13.43 dB 3:53 15-Flag In The Ground (Orchestral Version)
      DR11 -0.35 dB -15.46 dB 5:57 16-Juliet (Orchestral Version)
      DR11 -1.56 dB -15.87 dB 3:52 17-As If The World Wasn't Ending (Orchestral Version)
      DR10 -1.64 dB -14.55 dB 5:00 18-The Truth Is Out There (Orchestral Version)

      Référence principale

      Publicité

      Statistiques

      • Note Moyenne:4.15 / 5
      • Notes:177
      Publicité

      Vidéos (5)

      Éditer
      Version bêta de la page de la référence principale

      Vous visualisez actuellement la nouvelle version de la page de la référence principale. Désactivez cette option pour repasser à l'ancienne version.