Publicité

Référence

Marketplace

2 en vente à partir de 14,49 $US
Publicité
Publicité

Statistiques

  • En Collection:14
  • En Wantlist:11
  • Note Moyenne:5 / 5
  • Notes:2
  • Dernière vente:
  • Le moins cher:12,04 $US
  • Le prix moyen:21,00 $US
  • Le plus cher:29,99 $US

Vidéos (4)

Éditer

Listes

    Publicité

    Bernie TaupinHe Who Rides The Tiger

    Label:EastWest Japan – AMCY-6147
    Série:AOR 名盤 Selection
    Format:
    CD, Album, Promo, Reissue
    Pays:Japan
    Sortie:
    Genre:Rock
    Style:AOR, Soft Rock

    Tracklist

    1Monkey On My Back (The Last Run)
    2Born On The Fourth Of July
    3Venezuela
    4Approaching Armageddon
    5Lover's Cross
    6Blitz Babies
    7Valley Nights
    8Love (The Barren Desert)
    9The Whores Of Paris
    Publicité

    Sociétés, etc.

    Notes

    Original released 1980 on Asylum Records.

    Code-barres et autres identifiants

    • Code-barres: 4 988029 614742

    Autres versions (5 sur 17)

    Tout afficher
    Titre (Format)LabelCat N°PaysAnnée
    Édités récemment
    He Who Rides The Tiger (LP, Album)ElektraAS 52220Germany1980
    Édités récemment
    He Who Rides The Tiger (LP, Album)Asylum Records6E-263US1980
    Nouvelle proposition
    He Who Rides The Tiger (LP, Album)ElektraS 90.268Spain1980
    Nouvelle proposition
    He Who Rides The Tiger (LP, Album)Asylum RecordsX6E-263Canada1980
    Nouvelle proposition
    He Who Rides The Tiger (LP, Album)ElektraK 52220UK1980

    Avis

    • Avatar de ispace
      ispace
      foobar2000 1.3.17 / Dynamic Range Meter 1.1.1
      log date: 2018-11-05 21:56:16

      --------------------------------------------------------------------------------
      Analyzed: Bernie Taupin / He Who Rides The Tiger [JP 2000 CD]
      --------------------------------------------------------------------------------

      DR Peak RMS Duration Track
      --------------------------------------------------------------------------------
      DR14 -0.90 dB -17.36 dB 4:04 01-Monkey On My Back (The Last Run)
      DR14 -1.90 dB -17.75 dB 4:45 02-Born On The Fourth Of July
      DR13 -0.15 dB -17.36 dB 4:11 03-Venezuela
      DR13 -0.93 dB -16.70 dB 5:36 04-Approaching Armageddon
      DR14 -0.42 dB -17.34 dB 4:41 05-Lover's Cross
      DR16 -0.48 dB -17.75 dB 4:30 06-Blitz Babies
      DR15 -0.97 dB -18.80 dB 4:22 07-Valley Nights
      DR15 -1.30 dB -19.85 dB 5:31 08-Love (The Barren Desert)
      DR13 -2.51 dB -19.17 dB 6:22 09-The Whores Of Paris
      --------------------------------------------------------------------------------

      Number of tracks: 9
      Official DR value: DR14

      Samplerate: 44100 Hz
      Channels: 2
      Bits per sample: 16
      Bitrate: 755 kbps
      Codec: ALAC
      ================================================================================