Rollins Band ‎– Weight

Genre:
Style:
Year:

Tracklist

Disconnect
Fool
Icon
Civilized
Divine Object Of Hatred
Liar
Step Back
Wrong Man
Volume 4
Tired
Alien Blueprint
Shine

Versions (43)

Cat# Artist Title (Format) Label Cat# Country Year
72787-21034 1, 72787-21034-1 Rollins Band Weight(LP, Album, Cle) Imago (3), Imago (3) 72787-21034 1, 72787-21034-1 US 1994 Sell This Version
72787-21034-2 Rollins Band Weight(CD, Album) Imago (3) 72787-21034-2 Canada 1994 Sell This Version
72787 21034 2 Rollins Band Weight(CD, Album) Imago (3) 72787 21034 2 Europe 1994 Sell This Version
72787-21034-2 Rollins Band Weight(CD, Album) Imago (3) 72787-21034-2 US 1994 Sell This Version
72787-21034-2 Rollins Band Weight(CD, Album) Imago (3) 72787-21034-2 Australia 1994 Sell This Version
72787 21034 2 M20 300 Rollins Band Weight(CD, Album) Imago (3) 72787 21034 2 M20 300 Brazil 1994 Sell This Version
72787 21034 2 Rollins Band Weight(CD, Album) Imago (3) 72787 21034 2 Europe 1994 Sell This Version
BVCP-722 Rollins Band Weight(CD, Album) Imago (3) BVCP-722 Japan 1994 Sell This Version
72787-21034-2 Rollins Band Weight(CD, Album, Club) Imago (3) 72787-21034-2 Canada 1994 Sell This Version
72787-21034-2, IM 21034-2-DJ Rollins Band Weight(CD, Album, Promo) Imago (3), Imago (3) 72787-21034-2, IM 21034-2-DJ US 1994 Sell This Version
72787-21034-2 Rollins Band Weight(CD, Album, RE) Imago (3) 72787-21034-2 Canada 1994 Sell This Version
IM ADV 21034-2 Rollins Band Weight(CD, Promo) Imago (3) IM ADV 21034-2 Europe 1994 Sell This Version
IM ADV 21034-2 Rollins Band Weight(CD, Promo) Imago (3) IM ADV 21034-2 US 1994 Sell This Version
IM 21047-2-DJ Rollins Band Weight(CD, Promo, Tin) Imago (3) IM 21047-2-DJ Europe 1994 Sell This Version
IM 21047-2-DJ Rollins Band Weight(CD, Promo, Tin) Imago (3) IM 21047-2-DJ US 1994 Sell This Version
72787-21034 4 Rollins Band Weight(Cass) Imago (3) 72787-21034 4 US 1994 Sell This Version
72787-21034-4 Rollins Band Weight(Cass, Album) Imago (3) 72787-21034-4 Poland 1994 Sell This Version
72787-21034-4 Rollins Band Weight(Cass, Album) Imago (3) 72787-21034-4 Canada 1994 Sell This Version
72787-21034-4 Rollins Band Weight(Cass, Album) Imago (3) 72787-21034-4 Philippines 1994 Sell This Version
72787-21034-4 Rollins Band Weight(Cass, Album) Imago (3) 72787-21034-4 US 1994 Sell This Version
72787-21034-4 Rollins Band Weight(Cass, Album) Imago (3) 72787-21034-4 Italy 1994 Sell This Version
72787-21034-4 Rollins Band Weight(Cass, Album) Imago (3) 72787-21034-4 Europe 1994 Sell This Version
72787-21034-4 Rollins Band Weight(Cass, Album, Chr) Imago (3) 72787-21034-4 Canada 1994 Sell This Version
72787-21034-4 Rollins Band Weight(Cass, Album, Promo) Imago (3) 72787-21034-4 Europe 1994 Sell This Version
IMADV 21034-4 Rollins Band Weight(Cass, Album, Promo, Dol) Imago (3) IMADV 21034-4 US 1994 Sell This Version
136 Rollins Band Weight(Cass, Album, Unofficial) Music World (2) 136 Russia 1994 Sell This Version
0247 Rollins Band Weight(Cass, Album, Unofficial) Delta (5) 0247 Poland 1994 Sell This Version
72787 21034 1 Rollins Band Weight(LP, Album, Ltd, Cle) Imago (3) 72787 21034 1 Europe 1994 Sell This Version
72787 21034 1 Rollins Band Weight(LP, Ltd) Imago (3) 72787 21034 1 Germany 1994 Sell This Version
APCY-8407 Rollins Band Weight(CD, Promo) Bandai Music APCY-8407 Japan 1997 Sell This Version
PILOT 93 Rollins Band Weight(CD, Album, RE, RM) NMC Music PILOT 93 UK 2002 Sell This Version
MOFR 00430 Rollins Band Weight(CD, Album, Unofficial) Monsters Of Rock MOFR 00430 Russia 2003 Sell This Version
727872900213 Rollins Band Weight(LP, Album, RE, Red) Imago (3) 727872900213 US 2015 Sell This Version
727872900213 Rollins Band Weight(LP, Album, RE, Tra) Imago (3) 727872900213 USA & Canada 2015 Sell This Version
213CD53 Rollins Band Weight(CD, Album) 2.13.61 Records 213CD53 US Unknown Sell This Version
72787-21034-2 Rollins Band Weight(CD, Album) Imago (3) 72787-21034-2 US Unknown Sell This Version
72787 21034 2 Rollins Band Weight(CD, Album, RP) Imago (3) 72787 21034 2 US Unknown Sell This Version
72787 21034 2 Rollins Band Weight(CD, Album, RP) Imago (3) 72787 21034 2 Europe Unknown Sell This Version
72787 21034 2 Rollins Band Weight(CD, Album, RP) Imago (3) 72787 21034 2 US Unknown Sell This Version
JPCD9703182 Rollins Band Weight(CD, Album, Unofficial) ООО "ДОРА" JPCD9703182 Russia Unknown Sell This Version
NP 4282 Rollins Band Weight(Cass, Album, Unofficial) ZZ Studio NP 4282 Unknown Sell This Version
none Rollins Band Weight(Cass, Album, Unofficial) Not On Label (Rollins Band) none Bulgaria Unknown Sell This Version
ALR 63 Rollins Band Weight(Cass, Album, Unofficial) Always Records ALR 63 Russia Unknown Sell This Version

Recommendations

Reviews Show All 15 Reviews

Add Review

Ritter666

Ritter666

March 9, 2021
referencing Weight, LP, Album, Ltd, Cle, 72787 21034 1

EPIC album!
Sums up my anger in the 90’s!
LIAR!!!
speed808

speed808

September 19, 2020
edited 7 months ago
referencing Weight, LP, Album, Cle, 72787-21034 1, 72787-21034-1
Comparing the original US vs original Euro press vinyl I find that the mastering is identical but the US vinyl is a better quality pressing. The US isn't flawless but the Euro is full of loud pops and clicks due to either debris or small bubbles pressed into the vinyl that can be seen when inspecting it very closely.
lux1o

lux1o

May 10, 2020
referencing Weight, CD, Album, RE, RM, PILOT 93
--------------------------------------------------------------------------------
Analyzed: Rollins Band / Weight
--------------------------------------------------------------------------------

DR Peak RMS Duration Track
--------------------------------------------------------------------------------
DR10 -0.20 dB -11.47 dB 4:57 01-Disconnect
DR10 -0.20 dB -11.41 dB 4:26 02-Fool
DR10 -0.20 dB -10.98 dB 3:42 03-Icon
DR10 -0.20 dB -11.38 dB 3:54 04-Civilized
DR9 -0.20 dB -10.25 dB 4:02 05-Divine
DR9 -0.20 dB -12.11 dB 6:34 06-Liar
DR10 -0.20 dB -10.78 dB 3:59 07-Step Back
DR10 -0.20 dB -10.95 dB 4:20 08-Wrong Man
DR9 -0.20 dB -10.38 dB 4:39 09-Volume 4
DR14 -0.89 dB -16.81 dB 3:47 10-Tired
DR9 -0.20 dB -9.98 dB 3:45 11-Alien Blueprint
DR8 -0.20 dB -9.49 dB 5:27 12-Shine
--------------------------------------------------------------------------------

Number of tracks: 12
Official DR value: DR10
================================================================================
samusaranislove

samusaranislove

April 23, 2018
referencing Weight, CD, Album, 72787-21034-2
Disconnect, Liar and Shine help define me early in age.
AlvallacsA_Peru

AlvallacsA_Peru

April 16, 2018
edited over 3 years ago
referencing Weight, LP, Album, Cle, 72787-21034 1, 72787-21034-1
there was a very rare and limited amount of official Lp's pressed in transparent very green light vinyl (like green dollar) randomly pressed in US. I have one of these in Peru, I got it (stamped and was sealed! Really official!) at the same time that Henry Rollins came here to do tourism for first time. THANK YOU HENRY, I WAS WHO BUY IT! =)
sillypenta

sillypenta

December 6, 2015
referencing Weight, LP, Album, RE, Tra, 727872900213
Rollins has stated in a podcast that he possesses the master tapes for this album and that this reissue was made without him being contacted, so it is most likely mastered off a CD.
StepanB

StepanB

August 19, 2015
referencing Weight, LP, Album, RE, Red, 727872900213
wtf? Does Imago still have rights to issue Rollins Band? I think this is unofficial relise
eric91478

eric91478

May 17, 2015
referencing Weight, LP, Album, RE, Red, 727872900213
I think this pressing sounds pretty good, better than I anticipated.