Paul Davis (3) ‎– Cool Night

ジャンル:
スタイル:
年:

収録曲

Cool Night 3:34
You Came To Me 3:37
One More Time For The Lonely 4:04
Nathan Jones 3:23
Oriental Eyes 4:25
'65 Love Affair 3:46
Somebody's Gettin' To You 3:27
Love Or Let Me Be Lonely 3:39
What You Got To Say About Love 3:48
We're Still Together 3:31

バージョン (25)

カタログ # アーティスト タイトル (フォーマット) レーベル カタログ #
AL 9578, AL5-8238 Paul Davis (3) Cool Night(LP, Album) Arista, Arista AL 9578, AL5-8238 US 1981 このバージョンを出品
5016-4 Paul Davis (3) Cool Night(Cass, Album) Arista, Era Records 5016-4 US 1981 このバージョンを出品
ATC 9578 Paul Davis (3) Cool Night(Cass, Album, Club, Dol) Arista ATC 9578 Canada 1981 このバージョンを出品
ATC 9578 Paul Davis (3) Cool Night(Cass, Album, Dol) Arista ATC 9578 US 1981 このバージョンを出品
25RS-146 Paul Davis (3) Cool Night(LP, Album) Arista 25RS-146 Japan 1981 このバージョンを出品
AL 9578 Paul Davis (3) Cool Night(LP, Album) Arista AL 9578 US 1981 このバージョンを出品
204 357 Paul Davis (3) Cool Night(LP, Album) Arista 204 357 Germany 1981 このバージョンを出品
AL 9578 Paul Davis (3) Cool Night(LP, Album) Arista AL 9578 US 1981 このバージョンを出品
L 37758, L-37758 Paul Davis (3) Cool Night(LP, Album) Arista, Arista L 37758, L-37758 Australia 1981 このバージョンを出品
AL 9578 Paul Davis (3) Cool Night(LP, Album) Arista AL 9578 Canada 1981 このバージョンを出品
AL 9578 Paul Davis (3) Cool Night(LP, Album) Arista AL 9578 US 1981 このバージョンを出品
AL 9578 Paul Davis (3) Cool Night(LP, Album) Arista AL 9578 US 1981 このバージョンを出品
AL 9578 Paul Davis (3) Cool Night(LP, Album) Arista AL 9578 US 1981 このバージョンを出品
AL 9578, AL8-8126 Paul Davis (3) Cool Night(LP, Album) Arista, Arista AL 9578, AL8-8126 US 1981 このバージョンを出品
AL 9578 Paul Davis (3) Cool Night(LP, Album, Cap) Arista AL 9578 Canada 1981 このバージョンを出品
AL 9578 Paul Davis (3) Cool Night(LP, Album, Club) Arista AL 9578 Canada 1981 このバージョンを出品
AL 9578 Paul Davis (3) Cool Night(LP, Album, Club) Arista AL 9578 US 1981 このバージョンを出品
AL 9578 Paul Davis (3) Cool Night(LP, Album, Ter) Arista AL 9578 US 1981 このバージョンを出品
6328 412 Paul Davis (3) Cool Night(LP, Album) Arista 6328 412 Brazil 1982 このバージョンを出品
32RD-57 Paul Davis (3) Cool Night(CD, Album, RE) Arista 32RD-57 Japan 1986 このバージョンを出品
BVCA-2009 Paul Davis (3) Cool Night(CD, Album, RE) Arista BVCA-2009 Japan 1991 このバージョンを出品
5016-2 Paul Davis (3) Cool Night(CD, Album) ERA Records 5016-2 US 1995 このバージョンを出品
WOU 9578 Paul Davis (3) Cool Night(CD, Album) Wounded Bird Records WOU 9578 US 2009 このバージョンを出品
BVCM-35523 Paul Davis (3) Cool Night(CD, Album, Ltd, RE, RM, Pap) Arista BVCM-35523 Japan 2009 このバージョンを出品
SICP-4882 Paul Davis (3) Cool Night(CD, Album, RE) Arista SICP-4882 Japan 2016 このバージョンを出品

おすすめ

レビュー 2件のレビューを表示

レビューを追加

ispace

ispace

2018年2月8日
参照 Cool Night, CD, Album, 5016-2
foobar2000 1.3.17 / Dynamic Range Meter 1.1.1
log date: 2018-02-08 21:43:34

--------------------------------------------------------------------------------
Analyzed: Paul Davis / Cool Night
--------------------------------------------------------------------------------

DR Peak RMS Duration Track
--------------------------------------------------------------------------------
DR10 -0.19 dB -12.44 dB 3:41 01-Cool Night
DR11 -0.11 dB -12.41 dB 3:41 02-You Came to Me
DR12 -0.02 dB -14.04 dB 4:11 03-One More Time for the Lonely
DR11 -0.09 dB -12.43 dB 3:29 04-Nathan Jones
DR13 -0.08 dB -14.85 dB 4:28 05-Oriental Eyes
DR11 -0.08 dB -13.36 dB 3:56 06-'65 Love Affair
DR12 -0.16 dB -13.80 dB 3:33 07-Somebody's Gettin to You
DR11 -0.12 dB -12.97 dB 3:44 08-Love or Let Me Be Lonely
DR11 -0.05 dB -13.25 dB 3:55 09-What You Got to Say About Love
DR12 -0.04 dB -13.92 dB 3:37 10-We're Still Together
--------------------------------------------------------------------------------

Number of tracks: 10
Official DR value: DR11

Samplerate: 44100 Hz
Channels: 2
Bits per sample: 16
Bitrate: 991 kbps
Codec: ALAC
================================================================================
sellbydate

sellbydate

2017年4月30日
参照 Cool Night, LP, Album, AL 9578, AL5-8238
Absolutely love this record! I feel like PD is an underrated songwriter and synth specialist. Top-notch AOR with a southern twang--like Hall and Oates gone a touch country. Some great lyrics on here, too "Well they say he's got a Firebird/ I'm still in my '79/ According to the things that I've heard/I'm just a couple of years behind."
Some folks might think it's a bit cheesy but the melodies and heart are so pure that this record has really become an all-time fave.