Various ‎– Now It's Dark: David Lynch Tribute

レーベル:
KultFront ‎– KF-XXVII
フォーマット:
CD, Album, Compilation, Limited Edition, Repress
国・地域:
リリース済み:
ジャンル:
スタイル:

会社名など

クレジット

ノート

“It takes you to an ocean of pure consciousness, pure knowingness. But it’s familiar; it’s you. And, right away, a sense of happiness emerges—not a goofball happiness, but a thick beauty.” (David Lynch “Catching the Big Fish: Meditation, Consciousness, and Creativity”)

Artwork features a fragment of the painting “Special Agent Gordon Cole” by Chris Mars (oil on panel) © Chris Mars / Chris Mars Publishing Inc., 2012 - www.chrismarspublishing.com

Media sponsor: welcometotwinpeaks.com

Second edition of 100 copies in glossy 6-panel digipak.

Track 7 is again misspelled "Garmonbonzia 2.0" on inner panel.

バーコードとその他の識別子

  • Barcode (As Printed): 1 91061 84644 4
  • Barcode (Scanned): 191061846437
  • Matrix / Runout: KF-XXVII / ZHBD-11
  • Other (on Inner Ring): OOO "Маркон" Лицензия МПТР России №77-103

レビュー

レビューを追加

agt_dale_cooper

agt_dale_cooper

2018年7月17日
Diane, despite the fact the CD appears to be authored correctly (see CD Text rip below), the "Performer" field does NOT display correctly for me on any of my non-computer equipment...? Puzzled...

CDTEXTFILE "Now It's Dark- David Lynch Tribute.cdt"
TITLE "Now It's Dark: David Lynch Tribute"
FILE "Now It's Dark- David Lynch Tribute.bin" BINARY
TRACK 01 AUDIO
TITLE "Homunculus of Henry Spencer"
PERFORMER "Light Collapse"
INDEX 01 00:00:00
TRACK 02 AUDIO
TITLE "Dark Eye"
PERFORMER "Dvory"
INDEX 01 07:23:70
TRACK 03 AUDIO
TITLE "Prelost"
PERFORMER "Povarovo"
INDEX 01 17:05:60
TRACK 04 AUDIO
TITLE "Lynch2712"
PERFORMER "DMT"
INDEX 01 21:06:26
TRACK 05 AUDIO
TITLE "U-Turn to Lost Highway"
PERFORMER "Wunderblock"
INDEX 01 29:25:34
TRACK 06 AUDIO
TITLE "Lynch Law"
PERFORMER "Skripp"
INDEX 01 35:34:47
TRACK 07 AUDIO
TITLE "Garmonbozia 2.0"
PERFORMER "Sal Solaris"
INDEX 01 39:57:25
TRACK 08 AUDIO
TITLE "Arrakis Cinnamon"
PERFORMER "Relic Radiation"
INDEX 01 45:59:64
TRACK 09 AUDIO
TITLE "Mind in Motion"
PERFORMER "Kryptogen Rundfunk"
INDEX 01 53:31:47
TRACK 10 AUDIO
TITLE "Blue Room with No Doors"
PERFORMER "Reutoff"
INDEX 01 62:38:39
TRACK 11 AUDIO
TITLE "Eraserhead's Neighbors"
PERFORMER "Arcuation"
INDEX 01 70:04:57