Ad

The BatsCompiletely Bats

Genre:Rock, Pop
Style:Indie Rock
Year:

Tracklist

Made Up In Blue4:04
Neighbours3:15
Chicken Bird Run2:53
Jewellers' Heart3:26
I Go Wild2:42
Blindfold3:03
Mad On You2:38
By Night2:33
Earwig2:51
Claudine3:17
United Airways2:06
Man In The Moon3:11
Trouble In This Town2:48
Joe's Again3:02
Offside3:12

Versions

Filter by
    13 versions
    Image, In Your Collection, Wantlist, or Inventory
    Version DetailsData Quality
    Cover of Compiletely Bats, 1987, CassetteCompiletely Bats
    Cassette, Compilation
    Flying Nun Records – MC BAT 001New Zealand1987New Zealand1987
    Cover of Compiletely Bats, 1987, CassetteCompiletely Bats
    Cassette, Compilation
    Communion Label – Comm-25-4US1987US1987
    New Submission
    Cover of Compiletely Bats, 1988, CassetteCompiletely Bats
    Cassette, Compilation, Reissue
    Flying Nun Records – FNMCBAT1New Zealand1988New Zealand1988
    New Submission
    Cover of Compiletely Bats, 1990, VinylCompiletely Bats
    LP, Compilation, Remastered
    Flying Nun Records – FN143, Flying Nun Records – L30411Australia & New Zealand1990Australia & New Zealand1990
    Recently Edited
    Cover of Compiletely Bats, 1990, CDCompiletely Bats
    CD, Compilation
    Flying Nun Records – FNCD143New Zealand1990New Zealand1990
    New Submission
    Cover of Compiletely Bats, 1990, CDCompiletely Bats
    CD, Compilation
    Communion Label – Comm 25-2US1990US1990
    New Submission
    Cover of Compiletely Bats, 1990-07-00, CDCompiletely Bats
    CD, Compilation
    Flying Nun Records – D30411, Flying Nun Records – FNCD143Australia1990Australia1990
    New Submission
    Compiletely Bats
    Cassette, Compilation
    Flying Nun Records – FNMC143New Zealand1990New Zealand1990
    New Submission
    Cover of Compiletely Bats, 1990, CassetteCompiletely Bats
    Cassette, Compilation, Reissue
    Flying Nun Records – C 30411Australia1990Australia1990
    New Submission
    Cover of Compiletely Bats, 2010, CDCompiletely Bats
    CD, Compilation, Remastered, Reissue
    Flying Nun Records – FNCD143New Zealand2010New Zealand2010
    Recently Edited
    Cover of Compiletely Bats, 2014, VinylCompiletely Bats
    LP; 12", 33 ⅓ RPM; All Media, Compilation, Reissue, Remastered
    Flying Nun Records – FNLP534, Captured Tracks – FNCT006US2014US2014
    New Submission
    Cover of Compiletely Bats, 2014, FileCompiletely Bats
    File, FLAC, Compilation, Reissue
    Flying Nun Records – FN143New Zealand2014New Zealand2014
    Recently Edited
    Cover of Compiletely Bats, , CDCompiletely Bats
    CD, Compilation
    Flying Nun Records – FNCD 143EuropeEurope
    New Submission

    Reviews

    • Beetleroach's avatar
      Beetleroach
      I do not often leave comments but had to for this CD, which is one the worst remasters I have ever come across. For those of you, who have an appreciation for dynamic range numbers, here is what I found:

      DR Peak RMS Filename
      ----------------------------------------------------------------------------------------------
      DR5 -0.60 dB -6.47 dB 01 Made Up In Blue
      DR3 -0.50 dB -4.67 dB 02 Neighbours
      DR4 -0.50 dB -5.33 dB 03 Chicken Bird Run
      DR7 -0.50 dB -8.65 dB 04 Jeweller's Heart
      DR5 -0.50 dB -6.40 dB 05 I Go Wild
      DR7 -0.50 dB -8.50 dB 06 Blindfold
      DR4 -0.50 dB -6.10 dB 07 Mad On You
      DR4 -0.80 dB -5.98 dB 08 By Night
      DR4 -0.50 dB -5.89 dB 09 Earwig
      DR6 -0.50 dB -7.13 dB 10 Claudine
      DR8 -0.50 dB -9.45 dB 11 United Airways
      DR6 -0.50 dB -7.36 dB 12 Man In The Moon
      DR4 -0.60 dB -5.99 dB 13 Trouble In this Town
      DR3 -0.50 dB -5.04 dB 14 Joe's Again
      DR7 -0.50 dB -9.44 dB 15 Offside
      ----------------------------------------------------------------------------------------------
      Number of files: 15
      Official DR value: DR 5
      • shivsidecar's avatar
        shivsidecar
        Printed inner sleeve with old style wide eyed sleeve notes
        • 3nochroot's avatar
          3nochroot
          There's a sticker on my copy that says "Expanded Gatefold 2LP edition", but it's not a gatefold. Also, the bonus record says 33RPM on the center label, but it's a 45RPM.

          Master Release

          For sale on Discogs

          Sell a copy

          11 copies from $13.00

          Statistics

          • Avg Rating:4.28 / 5
          • Ratings:80
          Ad

          Videos (15)

          Edit
          Ad
          Ad