Champaign ‎– How 'Bout Us

Genre:
Style:
Year:

Tracklist

Can You Find The Time? 4:04
Party People 5:01
Whiplash 3:36
I'm On Fire 4:16
How 'Bout Us 4:34
Spinnin' 3:14
Dancin' Together Again 3:13
Lighten Up 3:16
If One More Morning 4:03

Versions (26)

Cat# Artist Title (Format) Label Cat# Country Year
JC 37008 Champaign How 'Bout Us(LP, Album, San) Columbia JC 37008 US 1981 Sell This Version
JCA 37008 Champaign How 'Bout Us(8-Trk, Album) Columbia JCA 37008 US 1981 Sell This Version
40-84927 Champaign How 'Bout Us(Cass, Album) CBS 40-84927 Europe 1981 Sell This Version
JCT 37008 Champaign How 'Bout Us(Cass, Album, Dol) Columbia JCT 37008 US 1981 Sell This Version
PCT 37008 Champaign How 'Bout Us(Cass, Album, Dol) Columbia PCT 37008 US 1981 Sell This Version
JC 37008 Champaign How 'Bout Us(LP, Album) Columbia JC 37008 US 1981 Sell This Version
ASF 2612 Champaign How 'Bout Us(LP, Album) CBS ASF 2612 South Africa 1981 Sell This Version
S 84927 Champaign How 'Bout Us(LP, Album) CBS Inc. S 84927 Spain 1981 Sell This Version
JC 37008 Champaign How 'Bout Us(LP, Album) Columbia JC 37008 Canada 1981 Sell This Version
25AP 2039 Champaign How 'Bout Us(LP, Album) CBS/Sony 25AP 2039 Japan 1981 Sell This Version
CBS 84927, JC 37008 Champaign How 'Bout Us(LP, Album) CBS, CBS CBS 84927, JC 37008 Europe 1981 Sell This Version
PC 37008 Champaign How 'Bout Us(LP, Album) Columbia PC 37008 US 1981 Sell This Version
SBP 237614 Champaign How 'Bout Us(LP, Album) CBS SBP 237614 New Zealand 1981 Sell This Version
CBS 84927 Champaign How 'Bout Us(LP, Album) CBS CBS 84927 UK 1981 Sell This Version
CBS 84927, JC 37008 Champaign How 'Bout Us(LP, Album) CBS, CBS CBS 84927, JC 37008 Europe 1981 Sell This Version
SBP 237614 Champaign How 'Bout Us(LP, Album) CBS SBP 237614 Australia 1981 Sell This Version
CS - 10.381 Champaign How 'Bout Us(LP, Album) CBS CS - 10.381 Venezuela 1981 Sell This Version
25AP 2039 Champaign How 'Bout Us(LP, Album, Promo) CBS/Sony 25AP 2039 Japan 1981 Sell This Version
JC 37008 Champaign How 'Bout Us(LP, Album, Ter) Columbia JC 37008 US 1981 Sell This Version
S-1964A Champaign [How 'Bout Us](Cass, Album, RE, Unofficial) Foot Print S-1964A Malaysia 1982 Sell This Version
20AP 2429 Champaign How 'Bout Us(LP, Album, RE) CBS/Sony 20AP 2429 Japan 1983 Sell This Version
SRCS 6123 Champaign How 'Bout Us(CD, Album, RE) Sony SRCS 6123 Japan 1991 Sell This Version
CDCOL 3616 S Champaign How 'Bout Us(CD, Album, RE) Columbia CDCOL 3616 S South Africa 1993 Sell This Version
982 990 2 Champaign How 'Bout Us(CD, Album, RE) Columbia 982 990 2 UK 1993 Sell This Version
FTG-292, 88691992632 Champaign How 'Bout Us(CD, Album, RE, RM, Exp) Funkytowngrooves, Columbia, Sony Music Commercial Music Group FTG-292, 88691992632 US 2012 Sell This Version
SICP-5507 Champaign How 'Bout Us(CD, Album, Ltd, RE, RM) Sony Records Int'l SICP-5507 Japan 2017 Sell This Version

Recommendations

Reviews Show All 2 Reviews

Add Review

nihilsoc

nihilsoc

May 25, 2018
referencing How 'Bout Us, CD, Album, RE, 982 990 2

These selling prices are just pure jokes! Tell me More!
ispace

ispace

February 9, 2018
referencing How 'Bout Us, CD, Album, RE, RM, Exp, FTG-292, 88691992632
foobar2000 1.3.17 / Dynamic Range Meter 1.1.1
log date: 2018-02-09 20:15:56

--------------------------------------------------------------------------------
Analyzed: Champaign / How 'Bout Us (Expanded Edition)
--------------------------------------------------------------------------------

DR Peak RMS Duration Track
--------------------------------------------------------------------------------
DR13 -0.03 dB -14.30 dB 4:05 01-Can You Find the Time?
DR13 -0.03 dB -14.60 dB 5:02 02-Party People
DR13 -0.03 dB -15.60 dB 3:37 03-Whiplash
DR13 -0.03 dB -15.48 dB 4:18 04-I'm on Fire
DR12 -0.62 dB -15.03 dB 4:35 05-How 'Bout Us
DR15 -0.03 dB -16.63 dB 3:16 06-Spinnin'
DR14 -0.04 dB -16.23 dB 3:15 07-Dancin' Together Again
DR15 -0.03 dB -16.60 dB 3:17 08-Lighten Up
DR13 -0.03 dB -15.37 dB 4:05 09-If One More Morning
DR11 -0.55 dB -14.30 dB 3:20 10-How 'Bout Us (Single Version)
DR12 -0.62 dB -14.97 dB 3:34 11-I'm on Fire (7")
--------------------------------------------------------------------------------

Number of tracks: 11
Official DR value: DR13

Samplerate: 44100 Hz
Channels: 2
Bits per sample: 16
Bitrate: 909 kbps
Codec: ALAC
================================================================================