James Taylor (2) ‎– In The Pocket

Genre:
Style:
Year:

Versions (38)

Cat# Artist Title (Format) Label Cat# Country Year
BS 2912 James Taylor (2) In The Pocket(LP, Album, Win) Warner Bros. Records BS 2912 US 1976 Sell This Version
50-14.235 James Taylor (2) In The Pocket(LP, Album) Warner Bros. Records 50-14.235 Argentina 1975 Sell This Version
W 856197 James Taylor (2) In The Pocket(8-Trk, Album) Warner Bros. Records W 856197 Italy 1976 Sell This Version
w 456197 James Taylor (2) In The Pocket(Cass, Album) Warner Bros. Records w 456197 Italy 1976 Sell This Version
CWX-2912 James Taylor (2) In The Pocket(Cass, Album) Warner Bros. Records CWX-2912 Canada 1976 Sell This Version
M5 2912 James Taylor (2) In The Pocket(Cass, Album) Warner Bros. Records M5 2912 US 1976 Sell This Version
WB M5 2912 James Taylor (2) In The Pocket(Cass, Album, Whi) Warner Bros. Records WB M5 2912 US 1976 Sell This Version
0727, WS 0727 James Taylor (2) In The Pocket(LP, Album) Warner Bros. Records, Warner Bros. Records 0727, WS 0727 Greece 1976 Sell This Version
BS 2912 James Taylor (2) In The Pocket(LP, Album) Warner Bros. Records BS 2912 US 1976 Sell This Version
K56197 James Taylor (2) In The Pocket(LP, Album) Warner Bros. Records K56197 UK 1976 Sell This Version
WBC 1311 James Taylor (2) In The Pocket(LP, Album) Warner Bros. Records WBC 1311 US 1976 Sell This Version
LP-S-65-16 James Taylor (2) In The Pocket(LP, Album) Warner Bros. Records LP-S-65-16 Portugal 1976 Sell This Version
HWBS 321-121 James Taylor (2) In The Pocket(LP, Album) Warner Bros. Records, Hispavox HWBS 321-121 Spain 1976 Sell This Version
WB 56197 James Taylor (2) In The Pocket(LP, Album) Warner Bros. Records WB 56197 Netherlands 1976 Sell This Version
BS 2912 James Taylor (2) In The Pocket(LP, Album) Warner Bros. Records BS 2912 New Zealand 1976 Sell This Version
BS 2912, BS-2912 James Taylor (2) In The Pocket(LP, Album) Warner Bros. Records, Warner Bros. Records BS 2912, BS-2912 Australia 1976 Sell This Version
W 56197 James Taylor (2) In The Pocket(LP, Album) Warner Bros. Records W 56197 Italy 1976 Sell This Version
WB 56 197 (WS 2912) James Taylor (2) In The Pocket(LP, Album) Warner Bros. Records WB 56 197 (WS 2912) Germany 1976 Sell This Version
36.002 James Taylor (2) In The Pocket(LP, Album) Warner Bros. Records Inc. 36.002 Brazil 1976 Sell This Version
BS 2912 James Taylor (2) In The Pocket(LP, Album) Warner Bros. Records BS 2912 Canada 1976 Sell This Version
P-10187W James Taylor (2) In The Pocket(LP, Album) Warner Bros. Records P-10187W Japan 1976 Sell This Version
WBC 1311 James Taylor (2) In The Pocket(LP, Album) Warner Bros. Records WBC 1311 South Africa 1976 Sell This Version
56197 (BS 2912) James Taylor (2) In The Pocket(LP, Album) Warner Bros. Records 56197 (BS 2912) France 1976 Sell This Version
BS 2912 James Taylor (2) In The Pocket(LP, Album, Jac) Warner Bros. Records BS 2912 US 1976 Sell This Version
BS 2912 James Taylor (2) In The Pocket(LP, Album, Los) Warner Bros. Records BS 2912 US 1976 Sell This Version
BS 2912 James Taylor (2) In The Pocket(LP, Album, RE) Warner Bros. Records BS 2912 US 1976 Sell This Version
BS 2912 James Taylor (2) In The Pocket(LP, Album, Ter) Warner Bros. Records BS 2912 US 1976 Sell This Version
P-6410W James Taylor (2) In The Pocket(LP, Album, RE) Warner Bros. Records P-6410W Japan 1980 Sell This Version
LWB-5220 James Taylor (2) En El Bolsillo(LP, Album) Warner Bros. Records LWB-5220 Mexico 1981 Sell This Version
7599-27301-2 James Taylor (2) In The Pocket(CD, Album, RE) Warner Bros. Records 7599-27301-2 Europe 1988 Sell This Version
2912-2 James Taylor (2) In The Pocket(CD, Album, RE) Warner Bros. Records 2912-2 US 1990 Sell This Version
WPCR-12513 James Taylor (2) In The Pocket(CD, Album, Ltd, RE, RM, Pap) Warner Bros. Records WPCR-12513 Japan 2006 Sell This Version
R2 2912 James Taylor (2) In The Pocket(CD, Album, RE) Warner Bros. Records R2 2912 US 2008 Sell This Version
WPCR-13824 James Taylor (2) In The Pocket(CD, Album, RE, RM, SHM) Warner Bros. Records, Warner Music WPCR-13824 Japan 2010 Sell This Version
927 301-2 James Taylor (2) In The Pocket(CD, Album, RE) Warner Bros. Records 927 301-2 Europe Unknown Sell This Version
2912-2 James Taylor (2) In The Pocket(CD, Album, RE) Warner Bros. Records 2912-2 US Unknown Sell This Version
M5 2912 James Taylor (2) In The Pocket(Cass, Album, RE) Warner Bros. Records M5 2912 US Unknown Sell This Version
BS 2912, R-123673 James Taylor (2) In The Pocket(LP, Album, Club, RE) Warner Bros. Records, Warner Bros. Records BS 2912, R-123673 US Unknown Sell This Version

Recommendations

Reviews

Add Review

ispace

ispace

August 8, 2018
referencing In The Pocket, CD, Album, RE, 927 301-2
foobar2000 1.3.17 / Dynamic Range Meter 1.1.1
log date: 2018-08-09 16:07:14

--------------------------------------------------------------------------------
Analyzed: James Taylor / In The Pocket
--------------------------------------------------------------------------------

DR Peak RMS Duration Track
--------------------------------------------------------------------------------
DR14 -0.40 dB -18.59 dB 4:34 01-Shower The People
DR13 -0.38 dB -18.46 dB 3:31 02-A Junkie's Lament
DR14 -1.69 dB -18.34 dB 4:37 03-Money Machine
DR13 -1.70 dB -18.37 dB 3:44 04-Slow Burning Love
DR14 -1.86 dB -18.86 dB 2:04 05-Everybody Has The Blues
DR16 -1.48 dB -22.36 dB 3:38 06-Daddy's All Gone
DR12 0.00 dB -15.53 dB 4:21 07-Woman's Gotta Have It
DR12 -0.77 dB -16.55 dB 4:04 08-Captain Jim's Drunken Dream
DR13 -0.59 dB -17.69 dB 3:30 09-Don't Be Sad 'cause Your Sun Is Down
DR14 -0.68 dB -18.79 dB 3:45 10-Nothing Like A Hundred Miles
DR14 0.00 dB -16.45 dB 3:40 11-Family Man
DR13 -5.42 dB -22.27 dB 3:35 12-Golden Moments
--------------------------------------------------------------------------------

Number of tracks: 12
Official DR value: DR14

Samplerate: 44100 Hz
Channels: 2
Bits per sample: 16
Bitrate: 653 kbps
Codec: ALAC
================================================================================