Ad

ChangeChange Of Heart

Tracklist

Say You Love Me Again4:26
Change Of Heart7:02
Warm5:00
True Love3:46
You Are My Melody6:22
Lovely Lady3:53
Got My Eyes On You4:34
It Burns Me Up5:03

Credits (24)

Versions

Filter by
    23 versions
    Image, In Your Collection, Wantlist, or Inventory
    Version DetailsData Quality
    Cover of Change Of Heart, 1984, VinylChange Of Heart
    LP, Album
    WEA – 240 439-1, WEA – WX 5UK & Europe1984UK & Europe1984
    Recently Edited
    Cover of Change Of Heart, 1984, VinylChange Of Heart
    LP, Album, SP - Specialty Pressing
    Atlantic – 80151-1, RFC Records – 80151-1US1984US1984
    Cover of Change Of Heart, 1984, VinylChange Of Heart
    LP, Album
    Five – FM 13521Italy1984Italy1984
    Recently Edited
    Cover of Change Of Heart, 1984-06-00, VinylChange Of Heart
    LP, Album
    WEA – WX 5, WEA – 780 151-1UK1984UK1984
    Recently Edited
    Change Of Heart
    LP, Album
    Carrere – 66 123Spain1984Spain1984
    New Submission
    Cover of Change Of Heart, 1984, VinylChange Of Heart
    LP, Album
    Carrere – 66.123, Clever – 66123France1984France1984
    New Submission
    Cover of Change Of Heart, 1984, VinylChange Of Heart
    LP, Album, AR - Allied Pressing
    Atlantic – 80151-1, RFC Records – 80151-1US1984US1984
    Recently Edited
    Cover of Change Of Heart, 1984, CassetteChange Of Heart
    Cassette, Album
    WEA – WX5C, WEA – 240 439-4Europe1984Europe1984
    New Submission
    Cover of Change Of Heart, 1984, VinylChange Of Heart
    LP, Album
    Atlantic – P-11497, RFC Records – P-11497Japan1984Japan1984
    New Submission
    Cover of Change Of Heart, 1984, VinylChange Of Heart
    LP, Album
    WEA – WX 5, WEA – 240 439-1UK & Europe1984UK & Europe1984
    New Submission
    Cover of Change Of Heart, 1984, CassetteChange Of Heart
    Cassette, Album, Stereo
    Five – 50 FM 13521Italy1984Italy1984
    Recently Edited
    Change Of Heart
    Cassette, Album
    Clever – CA 381 76.123France1984France1984
    New Submission
    Cover of Change Of Heart, 1984, CassetteChange Of Heart
    Cassette, Album
    WEA – WX5C, WEA – 240 439-4UK & Europe1984UK & Europe1984
    New Submission
    Cover of Change Of Heart = Cambio De Corazon, 1984, CassetteChange Of Heart = Cambio De Corazon
    Cassette, Album
    Interdisc (5) – CIL 3570Argentina1984Argentina1984
    New Submission
    Cover of Change Of Heart = Cambio De Corazón, 1984, VinylChange Of Heart = Cambio De Corazón
    LP, Album, Stereo
    Interdisc (5) – SLIN 3570Argentina1984Argentina1984
    New Submission
    Cover of Change Of Heart, 1984, VinylChange Of Heart
    LP, Album
    WEA – 240 439-1, WEA – WX 5UK & Europe1984UK & Europe1984
    Cover of Change Of Heart, 1984, VinylChange Of Heart
    LP, Album
    WEA – WX 5, Atlantic – 780 151-1, RFC Records – 780 151-1Europe1984Europe1984
    New Submission
    Cover of Change Of Heart, 1984, CassetteChange Of Heart
    Cassette, Album, Stereo, White Shell, SR
    Atlantic – 7 80151-4, Atlantic – 80151-4, RFC Records – 7 80151-4US1984US1984
    New Submission
    Cover of Change Of Heart, 1984, VinylChange Of Heart
    LP, Album
    WEA – WX 5, WEA – 240 439-1UK & Europe1984UK & Europe1984
    New Submission
    Cover of Change Of Heart, 1984, VinylChange Of Heart
    LP, Album
    WEA – 240 439-1, WEA – WX 5Germany1984Germany1984
    New Submission
    Cover of Change Of Heart, 2000-04-19, CDChange Of Heart
    CD, Album, Reissue
    Atlantic – AMCY-6096, Eastwest Japan – AMCY-6096, RFC Records – AMCY-6096Japan2000Japan2000
    New Submission
    Cover of Change Of Heart, 2011, CDChange Of Heart
    CD, Album, Reissue, Remastered
    Big Break Records – CDBBR 0074UK2011UK2011
    New Submission
    Cover of Change Of Heart, 2011, CDChange Of Heart
    CD, Album, Reissue, Remastered, Repress, Regular Jewel Case
    Big Break Records – CDBBR 0074UK2011UK2011
    New Submission

    Recommendations

    Reviews

    • vegasbiss's avatar
      vegasbiss
      3 souls are lost and got no soul at all
      • markeagling's avatar
        markeagling
        Edited one year ago
        Sounds great...

        foobar2000 1.6.13 / Dynamic Range Meter 1.1.1
        log date: 2023-03-23 13:48:53

        --------------------------------------------------------------------------------
        Analyzed: Change / Change Of Heart - AMCY6096
        --------------------------------------------------------------------------------

        DR Peak RMS Duration Track
        --------------------------------------------------------------------------------
        DR12 -3.02 dB -17.36 dB 4:30 01- Say You Love Me Again
        DR12 -2.68 dB -16.29 dB 7:06 02- Change Of Heart
        DR13 0.00 dB -15.03 dB 5:03 03- Warm
        DR10 -3.31 dB -15.27 dB 3:50 04- True Love
        DR12 -1.97 dB -15.94 dB 6:25 05- You Are My Melody
        DR11 -3.54 dB -16.70 dB 3:55 06- Lovely Lady
        DR11 -4.18 dB -16.37 dB 4:36 07- Got My Eyes On You
        DR12 -4.54 dB -18.34 dB 5:06 08- It Burns Me Up
        --------------------------------------------------------------------------------

        Number of tracks: 8
        Official DR value: DR12

        Samplerate: 44100 Hz
        Channels: 2
        Bits per sample: 16
        Bitrate: 802 kbps
        Codec: FLAC
        ================================================================================

        Master Release

        For sale on Discogs

        Sell a copy

        Statistics

        • Avg Rating:4.31 / 5
        • Ratings:397
        Ad

        Videos (16)

        Edit
        Ad
        Ad