Cattle Decapitation ‎– Death Atlas

Genre:
Style:
Year:

Tracklist

Anthropogenic: End Transmission 2:16
The Geocide 3:43
Be Still Our Bleeding Hearts 3:54
Vulturous 4:59
The Great Dying 1:13
One Day Closer To The End Of The World 3:47
Bring Back The Plague 4:28
Absolute Destitute 4:36
The Great Dying II 1:06
Finish Them 2:57
With All Disrespect 4:31
Time's Cruel Curtain 5:32
The Unerasable Past 2:51
Death Atlas 9:15

Versions (26)

Cat# Artist Title (Format) Label Cat# Country Year
3984-15684-1 Cattle Decapitation Death Atlas(2xLP, Album, 180) Metal Blade Records 3984-15684-1 Europe 2019 Sell This Version
none Cattle Decapitation Death Atlas(14xFile, FLAC, Album, 24b) Metal Blade Records none 2019
none Cattle Decapitation Death Atlas(14xFile, MP3, Album, 320) Metal Blade Records none US 2019
3984-15683-1 Cattle Decapitation Death Atlas(2xLP, Album, Ltd, Cle) Metal Blade Records 3984-15683-1 US 2019 Sell This Version
3984-15683-1 Cattle Decapitation Death Atlas(2xLP, Album, Ltd, Gol) Metal Blade Records 3984-15683-1 US 2019 Sell This Version
3984-15684-1 Cattle Decapitation Death Atlas(2xLP, Album, Ltd, Num, Car) Metal Blade Records 3984-15684-1 Europe 2019 Sell This Version
3984-15684-1 Cattle Decapitation Death Atlas(2xLP, Album, Ltd, Num, Cho) Metal Blade Records 3984-15684-1 Europe 2019 Sell This Version
3984-15684-1 Cattle Decapitation Death Atlas(2xLP, Album, Ltd, Num, Ins) Metal Blade Records 3984-15684-1 Europe 2019 Sell This Version
3984-15684-1 Cattle Decapitation Death Atlas(2xLP, Album, Ltd, Num, Yel) Metal Blade Records 3984-15684-1 Germany 2019 Sell This Version
3984-15684-1 Cattle Decapitation Death Atlas(2xLP, Album, Ltd, Ora) Metal Blade Records 3984-15684-1 Europe 2019 Sell This Version
3984-15683-1 Cattle Decapitation Death Atlas(2xLP, Album, Ltd, Red) Metal Blade Records 3984-15683-1 US 2019 Sell This Version
3984-15683-1 Cattle Decapitation Death Atlas(2xLP, Album, Ltd, Sol) Metal Blade Records 3984-15683-1 US 2019 Sell This Version
15683 Cattle Decapitation Death Atlas(2xLP, Album, TP) Metal Blade Records 15683 US 2019 Sell This Version
none Cattle Decapitation Death Atlas(Box, Dlx, Ltd, Woo + 2xLP, Album, Dea + CD, Album,) Metal Blade Records none USA & Europe 2019 Sell This Version
3984-15683-2 Cattle Decapitation Death Atlas(CD, Album) Metal Blade Records 3984-15683-2 US 2019 Sell This Version
GQCS-90796 Cattle Decapitation Death Atlas(CD, Album) Metal Blade Records, Chaos Reigns GQCS-90796 Japan 2019 Sell This Version
MUTP273 Cattle Decapitation Death Atlas(CD, Album) Mutilation Productions MUTP273 Brazil 2019 Sell This Version
KTTR CD 154 Cattle Decapitation Death Atlas(CD, Album, Dig) Kattran Records KTTR CD 154 Russia 2019 Sell This Version
3984-15683-0 Cattle Decapitation Death Atlas(CD, Album, Ltd, Dig) Metal Blade Records 3984-15683-0 Europe 2019 Sell This Version
3984-15683-4 Cattle Decapitation Death Atlas(Cass, Album) Metal Blade Records 3984-15683-4 US 2019 Sell This Version
3984-15684-1 Cattle Decapitation Death Atlas(LP, Gre + LP, Gre + Album, Ltd, Num, Eur) Metal Blade Records 3984-15684-1 Europe 2020 Sell This Version
NESV-2046, 3984-15684-1 Cattle Decapitation Death Atlas(2xLP, Album, Ltd, Bla) Northeast Steel Industry, Northeast Steel Industry NESV-2046, 3984-15684-1 China 2021 Sell This Version
NESV-2046, 3984-15684-1 Cattle Decapitation Death Atlas(2xLP, Album, Ltd, Bla) Northeast Steel Industry, Northeast Steel Industry NESV-2046, 3984-15684-1 China 2021 Sell This Version
NESV-2046 Cattle Decapitation Death Atlas(2xLP, Album, Ltd, Num, Bla) Northeast Steel Industry NESV-2046 China 2021 Sell This Version
NESV-2046 Cattle Decapitation Death Atlas(2xLP, Album, TP, Gat) Northeast Steel Industry NESV-2046 China 2021 Sell This Version
NESV-2046, 3984-15684-1 Cattle Decapitation Death Atlas(LP, Bla + LP, MP, Bla + Album, Ltd) Northeast Steel Industry, Northeast Steel Industry NESV-2046, 3984-15684-1 China 2021 Sell This Version

Recommendations

Reviews Show All 22 Reviews

Add Review

Glennus

Glennus

October 9, 2021
referencing Death Atlas, 2xLP, Album, Ltd, Bla, NESV-2046, 3984-15684-1

Pretty surprised this sounds as good as it does!

DR11 -3.89 dB -18.72 dB 2:17 01-Anthropogenic: End Transmission
DR11 -0.66 dB -13.58 dB 3:42 02-The Geocide
DR12 -0.94 dB -13.65 dB 3:53 03-Be Still Our Bleeding Hearts
DR12 -0.89 dB -14.21 dB 5:00 04-Vulturous
DR9 -7.20 dB -18.42 dB 1:23 05-The Great Dying
DR12 -0.81 dB -14.02 dB 3:47 06-One Day Closer To The End Of The World
DR12 -1.18 dB -14.24 dB 4:27 07-Bring Back The Plague
DR12 0.00 dB -14.01 dB 4:36 08-Absolute Destitute
DR12 -7.53 dB -23.15 dB 1:06 09-The Great Dying II
DR12 -0.90 dB -14.55 dB 2:55 10-Finish Them
DR11 -0.88 dB -14.01 dB 4:28 11-With All Disrespect
DR12 -0.60 dB -14.57 dB 5:30 12-Time's Cruel Curtain
DR11 -3.99 dB -18.29 dB 3:03 13-The Unerasable Past
DR12 -0.36 dB -14.66 dB 9:08 14-Death Atlas
karsonfulkerson

karsonfulkerson

January 17, 2021
referencing Death Atlas, 2xLP, Album, TP, 15683
You know the test press is good when travis ryan accidentally breaks one
Abeninson

Abeninson

June 19, 2020
referencing Death Atlas, Box, Dlx, Ltd, Woo + 2xLP, Album, Dea + CD, Album,, none
Is anyone selling the 7inch by itself? Let me know!
PaperBird

PaperBird

April 14, 2020
referencing Death Atlas, LP, Gre + LP, Gre + Album, Ltd, Num, Eur, 3984-15684-1
Some trivia about this variant, shared on the Cattle Decapitation facebook page 17th March 2020:
"Metal Blade Records and Cattle Decapitation put together a cool new DEATH ATLAS vinyl variant for our the "Europandemic Tour" limited to 300 copies and since that tour is now postponed, the copies are now available online for purchase. Inspired by the beginning of the intro "The Unerasable Past" on our music video by the legendary Wes Benscoter where green turns to grey, chlorophyll turns to carbon, life turns to death."
matthewmounce

matthewmounce

January 21, 2020
edited about 1 year ago
referencing Death Atlas, 2xLP, Album, Ltd, Sol, 3984-15683-1

...did anyone else not get side A and B, and end up with some weird hip-hop shit instead? Because I opened my sealed copy and where side A/B should have been, I got a completely different record.
evilmainer

evilmainer

December 25, 2019
referencing Death Atlas, 2xLP, Album, Ltd, Sol, 3984-15683-1

Wow, by far the best heavy release of 2019 in my opinion. Both musically and lyrically this is a top notch release!! The art and concept are just head and shoulders above their peers in the genre currently. This release color make up is very cool and sounds dead quiet.
Hope to catch em on this tour.
May we end ourselves!!
Bounty_Killer

Bounty_Killer

December 3, 2019
referencing Death Atlas, 2xLP, Album, Ltd, Num, Cho, 3984-15684-1
My chocking sulfur vinyl copy plays in 33 rpm, not in 45.
Bounty_Killer

Bounty_Killer

December 3, 2019
edited over 2 years ago
referencing Death Atlas, 2xLP, Album, Ltd, Cle, 3984-15683-1
Are US vinyl pressings really play in 45 rpm? My european copy (chocking sulfur vinyl) plays in 33 rpm. If US vinyl pressings play in 45 rpm, not only these US vinyl pressing are better from the aesthetic point of view than the european ones but they are better from the sound quality point of view too.
kryptonitejesus

kryptonitejesus

November 27, 2019
referencing Death Atlas, 2xLP, Album, Ltd, Red, 3984-15683-1
Check your copy of the record, mine was shipped punctured from the wall clock, went right through the record jacket. I've reached out to IndieMerchStore to see if they'll make this right.