Ad

Tracklist

On My Own4:19
Meant For You3:59
Very Special4:28
Be Yourself5:00
Long As We're Together4:21
Your Love3:42
How Long4:02
All The Things I Love3:55

Credits (18)

Versions

Filter by
    15 versions
    Image, In Your Collection, Wantlist, or Inventory
    Version DetailsData Quality
    Cover of Very Special, 1981, VinylVery Special
    LP, Album
    Elektra – ELK 52 281Germany1981Germany1981
    Recently Edited
    Cover of Very Special, 1981, VinylVery Special
    LP, Album, Stereo, SP
    Elektra – 6E-300US1981US1981
    Cover of Very Special, 1981, VinylVery Special
    LP, Album, Stereo, AR Pressing
    Elektra – 6E-300US1981US1981
    Recently Edited
    Cover of Very Special, 1981, VinylVery Special
    LP, Album, Promo
    Elektra – 6E-300US1981US1981
    Cover of Very Special, 1981, VinylVery Special
    LP, Album, Test Pressing
    Elektra – ELK 52 281Germany1981Germany1981
    New Submission
    Cover of Very Special, 1981, VinylVery Special
    LP, Album, Test Pressing
    Elektra – ELK 52 281Germany1981Germany1981
    New Submission
    Cover of Very Special, 1981, VinylVery Special
    LP, Album
    Elektra – P-11039EJapan1981Japan1981
    New Submission
    Cover of Very Special, 1981, VinylVery Special
    LP, Album, Promo
    Elektra – SP-11039EJapan1981Japan1981
    New Submission
    Cover of Very Special, 1981, CassetteVery Special
    Cassette, Album, Stereo
    Elektra – TC-5300US1981US1981
    New Submission
    Cover of Very Special, 1981, CassetteVery Special
    Cassette, Album, Stereo, Smooth Shell
    Elektra – TC-5300US1981US1981
    New Submission
    Cover of Very Special, 1981, VinylVery Special
    LP, Album, Promo, SP
    Elektra – 6E-300US1981US1981
    New Submission
    Cover of Very Special, 1981, 8-Track CartridgeVery Special
    8-Track Cartridge, Album
    Elektra – ET-8300US1981US1981
    New Submission
    Cover of Very Special, 1999-10-27, CDVery Special
    CD, Album, Reissue
    Elektra – AMCY-6048Japan1999Japan1999
    New Submission
    Cover of Very Special, 2002-11-19, CDVery Special
    CD, Album, Reissue, Remastered
    Spy Records (America) – SPY 45005-2US2002US2002
    Recently Edited
    Cover of Very Special, 2015-07-22, CDVery Special
    CD, Album, Limited Edition, Reissue, Remastered
    Elektra – WPCR-28655Japan2015Japan2015
    New Submission

    Reviews

    • gkriston's avatar
      gkriston
      I agree with 240661masterj. Serious go to LP lately. Favorite track is "How Long," a classic buried on side B. The guitarist was on HAMPTON HAWES - UNIVERSE and PHIL UPCHURCH - DARKNESS DARKNESS...yooow!!!!
      • ispace's avatar
        ispace
        foobar2000 1.6 / Dynamic Range Meter 1.1.1
        log date: 2021-01-25 20:05:44

        --------------------------------------------------------------------------------
        Analyzed: Debra Laws / Very Special [JP 1981/1999 CD]
        --------------------------------------------------------------------------------

        DR Peak RMS Duration Track
        --------------------------------------------------------------------------------
        DR13 -0.03 dB -16.42 dB 4:22 01-On My Own
        DR14 -2.16 dB -18.61 dB 4:01 02-Meant for You
        DR14 -1.03 dB -17.34 dB 4:29 03-Very Special
        DR14 0.00 dB -17.11 dB 5:02 04-Be Yourself
        DR14 0.00 dB -16.54 dB 4:24 05-Long as We're Together
        DR11 -3.04 dB -17.41 dB 3:45 06-Your Love
        DR14 -1.44 dB -17.99 dB 4:03 07-How Long
        DR12 -1.71 dB -17.43 dB 3:57 08-All the Things I Love
        --------------------------------------------------------------------------------

        Number of tracks: 8
        Official DR value: DR13

        Samplerate: 44100 Hz
        Channels: 2
        Bits per sample: 16
        Bitrate: 837 kbps
        Codec: ALAC
        ================================================================================
        • 240661masterj's avatar
          240661masterj
          COME TO THINK OF IT...MOST CAME OFF THE ALBUM...BE IT A-SIDE OR B-SIDE SINGLES SO IN A WAY FULL JUSTICE WAS ACCOMPLISHED AS THE CUTS WERE SO STRONG.
          • 240661masterj's avatar
            240661masterj
            PROBABLY TRACK FOR TRACK ONE OF THE MOST CONSISTENT ALBUMS OF THE 80'S PERIOD!! EVERY TRACK ON THIS NOW CLASSIC PIECE OF WAX COULD HAVE BEEN SINGLES...DEFINITELY IN MY TOP 5 ALBUMS OF THE 80'S...LABEL: TOP DRAW!!
            • MattFPMP's avatar
              MattFPMP
              Superb Jazz-Funk from Ronnie Laws & Hubert Laws; also featuring Bobby Lyle & Larry Dunn. In fact so many awesome musicians here; a golden era. Highly recommended!
              • Arthit's avatar
                Arthit
                Mine's the Japanese vinyl edition - catalogue number # P-11 039E

                Master Release

                Marketplace

                91 For Sale from $2.00
                Ad

                Statistics

                • Avg Rating:4.25 / 5
                • Ratings:122
                Ad

                Videos (8)

                Edit