Ad

Master Release

Edit Master Release
Recently Edited

Marketplace

18 For Sale from $10.00
Ad

Statistics

  • Avg Rating:4.53 / 5
  • Ratings:30
Ad

Videos (6)

Edit
Master Release Beta Version

You are viewing the new version of the master release page. Disable this option to revert to the old version.

Dragon (5)Universal Radio

Genre:Rock
Style:Prog Rock
Year:

Tracklist

Universal Radio
Going Slow
Patina
Weetbix
Graves
Avalanche

Credits (9)

Versions

Filter by
5 versions
Image, In Your Collection, Wantlist, or Inventory
Version DetailsData Quality
Cover of Universal Radio, 1974, VinylUniversal Radio
LP, Album
Vertigo – 6360 902New Zealand1974New Zealand1974
Recently Edited
Cover of Universal Radio, 1974, VinylUniversal Radio
LP, Album
Vertigo – 6360 902Australia1974Australia1974
New Submission
Cover of Universal Radio, 2001, VinylUniversal Radio
LP, Album, Unofficial Release
Deep Records (5) – 10559Europe2001Europe2001
Recently Edited
Cover of Universal Radio, 2009, CDUniversal Radio
CD, Album, Reissue, Remastered
Aztec Music – AVSCD045Australia2009Australia2009
Recently Edited
Cover of Universal Radio, , CDUniversal Radio
CD, Album, Reissue, Unofficial Release
Venture (5) – VVCD 007JapanJapan
New Submission

Reviews

  • sungnakum's avatar
    sungnakum
    Edited 3 months ago
    If you checking out the labels you clearly see this australian pressed version came out in 1975 instead of 1974. Only the New Zeeland version came out in 1974. Also as far I know the insert only belong to the New Zeeland version.
    • sungnakum's avatar
      sungnakum
      One of my all time favourite album. . . .
      • ispace's avatar
        ispace
        Overly compressed dynamic range

        foobar2000 1.4.4 / Dynamic Range Meter 1.1.1
        log date: 2020-03-26 17:50:40

        --------------------------------------------------------------------------------
        Analyzed: Dragon / Universal Radio [AU 1974/2009 CD]
        --------------------------------------------------------------------------------

        DR Peak RMS Duration Track
        --------------------------------------------------------------------------------
        DR8 0.00 dB -10.84 dB 8:33 01-Universal Radio
        DR8 0.00 dB -10.76 dB 6:16 02-Going Slow
        DR8 0.00 dB -9.81 dB 11:47 03-Patina
        DR8 0.00 dB -9.99 dB 2:55 04-WeetBix
        DR8 0.00 dB -11.52 dB 6:57 05-Graves
        DR9 0.00 dB -12.13 dB 11:09 06-Avalanche
        DR9 0.00 dB -10.72 dB 6:39 07-Black Magic Woman
        DR8 0.00 dB -8.85 dB 3:07 08-X Ray Creature
        DR9 0.00 dB -10.03 dB 3:33 09-Dinghy Days
        --------------------------------------------------------------------------------

        Number of tracks: 9
        Official DR value: DR8

        Samplerate: 44100 Hz
        Channels: 2
        Bits per sample: 16
        Bitrate: 744 kbps
        Codec: ALAC
        ================================================================================
        • rcubed88's avatar
          rcubed88
          Edited 4 years ago
          How about posting a serious scan of the inner gatefold (liner notes)?
          • martek
            re-released with extras rare tracks on cd in dipack