Irene Cara ‎– Anyone Can See

Genre:
Style:
Year:

Tracklist

Reach Out I'll Be There 4:27
My Baby (He's Something Else) 3:33
Anyone Can See 3:42
Don't Throw Your Love Away 3:58
Slow Down 3:53
Whad'Ya Want 3:35
You Hurt Me Once 3:39
Thunder In My Heart 3:39
Why 4:49
True Love 3:46

Versions (16)

Cat# Artist Title (Format) Label Cat# Country Year
EPC 25208, 25208 Irene Cara Anyone Can See(LP, Album) Epic, Epic EPC 25208, 25208 Europe 1982 Sell This Version
XE4-60003 Irene Cara Anyone Can See(Cass, Album) Network Records (2) XE4-60003 Canada 1982 Sell This Version
E4-60003 Irene Cara Anyone Can See(Cass, Album, Club, Dol) Network Records (2) E4-60003 US 1982 Sell This Version
E4-60003 Irene Cara Anyone Can See(Cass, Album, Dol) Network Records (2) E4-60003 US 1982 Sell This Version
E1-60003 Irene Cara Anyone Can See(LP, Album) Network Records (2) E1-60003 US 1982 Sell This Version
EPC 25208 Irene Cara Anyone Can See(LP, Album) Epic EPC 25208 Italy 1982 Sell This Version
25AP 2473 Irene Cara Anyone Can See(LP, Album) CBS/Sony 25AP 2473 Japan 1982 Sell This Version
XE1-60003 Irene Cara Anyone Can See(LP, Album) Network Records (2) XE1-60003 Canada 1982 Sell This Version
E1-60003 Irene Cara Anyone Can See(LP, Album) Network Records (2) E1-60003 US 1982 Sell This Version
EPC 25250 Irene Cara Anyone Can See(LP, Album) Epic, Network Records (2) EPC 25250 UK 1982 Sell This Version
E1-60003 Irene Cara Anyone Can See(LP, Album, All) Network Records (2) E1-60003 US 1982 Sell This Version
E1-60003 Irene Cara Anyone Can See(LP, Album, Club) Network Records (2) E1-60003 US 1982 Sell This Version
E1-60003 Irene Cara Anyone Can See(LP, Album, Promo) Network Records (2) E1-60003 US 1982 Sell This Version
25AP 2473 Irene Cara Anyone Can See(LP, Album, Promo) CBS/Sony 25AP 2473 Japan 1982 Sell This Version
SPLK-7298 Irene Cara Anyone Can See(CD, Album) Unidisc SPLK-7298 Canada 2001 Sell This Version
SPLK-7298 Irene Cara Anyone Can See(CD, Album, Unofficial) Unidisc (4) SPLK-7298 Russia 2013 Sell This Version

Recommendations

Reviews

Add Review

ispace

ispace

April 9, 2019
referencing Anyone Can See, CD, Album, SPLK-7298
foobar2000 1.3.17 / Dynamic Range Meter 1.1.1
log date: 2019-04-09 18:48:49

--------------------------------------------------------------------------------
Analyzed: Irene Cara / Anyone Can See [CA 2001 CD]
--------------------------------------------------------------------------------

DR Peak RMS Duration Track
--------------------------------------------------------------------------------
DR9 -0.29 dB -10.36 dB 4:30 01-Reach Out I'll Be There
DR9 -0.30 dB -10.30 dB 3:35 02-My Baby (He's Something Else)
DR9 -0.30 dB -10.86 dB 3:44 03-Anyone Can See
DR9 -0.30 dB -10.99 dB 4:00 04-Don't Throw Your Love Away
DR9 -0.30 dB -12.62 dB 3:55 05-Slow Down
DR9 -0.30 dB -11.08 dB 3:37 06-Whad'ya Want
DR9 0.00 dB -10.78 dB 3:40 07-You Hurt Me Once
DR8 0.00 dB -9.11 dB 3:42 08-Thunder In My Heart
DR7 0.00 dB -8.30 dB 4:51 09-Why
DR8 0.00 dB -9.31 dB 3:48 10-True Love
--------------------------------------------------------------------------------

Number of tracks: 10
Official DR value: DR9

Samplerate: 44100 Hz
Channels: 2
Bits per sample: 16
Bitrate: 973 kbps
Codec: ALAC
================================================================================